//TJADB Project
TITLE:Mada Saitama 2000
TITLEJA:まださいたま2000
SUBTITLE:--Linda AI-CUE
BPM:280
WAVE:Mada Saitama 2000.ogg
OFFSET:-1.895
DEMOSTART:15.600

COURSE:Oni
LEVEL:10
SCOREINIT:350
SCOREDIFF:88
#START
#MEASURE 8/4
#SCROLL 0.5
1101101100220011,
200000000000100000000000200200200200100000200000100000000000000000000000200020002000200000000000,
20100020100020100000222210002000,
100100200000100200101010200000100200101010200000,
1101101100220011,
200000000000100000000000200200200200100000200000100000000000000000000000200020002000200000000000,
20200202020022220022020202020200,
02020202020022020200222200000000,
30000000300000001000121010002020,
100000000000200000100000000000200200100000200000100000000000200000000000200020002000200000100000,
10000000300000001010202011112222,
100100200000100200101010200000100200101010200000,
30000000300010201000121010002020,
100000000000200000100000000000200200100000200000100000000000200000000000200020002000200000100000,
10000000101020201010202011112222,
100100200000100200101010200000100200101010200000,
30000000111110201000121010002020,
100000000000200000100000000000200000100000200200100000000000200000000000200020002000200000100000,
10000000111110201000121010102020,
100100200000100200101010200000100200101010200000,
30000000111110201000121010002020,
100000000000200000100000000000200200100000000000000000000000200000000000200020002000200000100000,
10000000202010101111201111201111,
200000000200000000200000101010100200000000100100,
21121121,
10002000100020000000200022220000,
1000001000222010,
00002000002000002000111020001010,
21121121,
10002000100020000000200022220000,
1000001000222010,
200000000200000000200000101010101010200000000000,
#GOGOSTART
1111000000222010,
100200100000100010001000100000000000200000000000,
1111000010222010,
100200100000100200100000100010001000100000002000,
10101010202020201010121020202020,
10101010202020201010121020202020,
10101210202020201010121020202020,
100000100000100200100000200000200000200000200000
#SCROLL 2.73
500000000000000000000008000000000000000000000000,
#GOGOEND
#SCROLL 0.5
20200202020022220022020202020200,
02020202020022020200222200000000,
20022220220202020200222002020202,
22200022202200220200220020200220,
00002202002200202022020222020000,
#MEASURE 4/4
#SCROLL 1
111222,
#SECTION
#BRANCHSTART p,80,80
#N
100000001000000010000000100100100100100100100100,
#GOGOSTART
10201120,
1011201020101120,
20102212,
1020112110102000,
10201121,
2010201011102010,
2022102020102010,
1012221210201020,
1020102010122010,
1202102010221010,
2210201012201022,
1022102010122010,
1202102010221010,
2210120210010011,
1011102010201012,
2010120210201022,
1020102010201011,
1020102001110111,
0111102010200012,
0101101010201111,
1020301110201020,
01121101,
2110001011101020,
1001101010100011,
#E
,
#GOGOSTART
,
,
,
,
,
,
,
,
,
,
,
,
,
,
,
,
,
,
,
,
,
,
,
,
#M
100000001000000010000000100100100100100100100100,
#GOGOSTART
1000102010021010,
1020102210101012,
1002021010201010,
1022102010121010,
1020102010021010,
1020102210101012,
1002021010201010,
1202102011112111,
1000102010021010,
1020102210101012,
1002021010201010,
1022102010121010,
1020102010021010,
1020102210101012,
1002021010201010,
1202102211112111,
1020102012021010,
1020102210101012,
1002021010221010,
1022102012121222,
1020102012021010,
1020102210101012,
1002021010221010,
1022122211112111,
#SECTION
#BRANCHSTART p,-1,-1
#N
,
,
,
,
,
,
#GOGOEND
#MEASURE 8/4
,
#GOGOSTART
,
,
,
,
#MEASURE 4/4
,
,
,
,
,
,
,
,
#GOGOEND
,
#E
,
,
,
,
,
,
#GOGOEND
#MEASURE 8/4
,
#GOGOSTART
,
,
,
,
#MEASURE 4/4
,
,
,
,
,
,
,
,
#GOGOEND
,
#M
1020102012021010,
1020102210101012,
1002021010221010,
1022102012121221,
01010101,
0010001020220222,
#GOGOEND
#MEASURE 8/4
#SCROLL 2.73
500000000000000000000008000000000000000000000000
#SCROLL 0.5
100010001000100010001000200000000000000000000000,
#GOGOSTART
#MEASURE 8/4
100000100100100000000200200200200000200010001000,
100111222111,
100000100100100000000200200200200000200010001000,
100111222111,
#MEASURE 4/4
#SCROLL 1
1020102012021010,
1020102210101012,
1012221010221010,
1022102012121222,
1020102012021012,
1222122212121210,
30030030,
0010200011211211,
#GOGOEND
2200000000000000,
#BRANCHEND
#END

COURSE:Hard
LEVEL:8
BALLOON:30,78
SCOREINIT:410
SCOREDIFF:95
#START
#MEASURE 8/4
#SCROLL 0.5
1101101100220010,
2010201210002220,
2202202200221020,
1020120020120020,
1101101100220010,
2010201210002220,
7,
0008,
3000300010111022,
1001021010202220,
3000300010221000,
1120120020120020,
3000300010111022,
1001021010202220,
3000300010221000,
1120120020120020,
3000300030111022,
1001021010202220,
3000300010221000,
1120120020120020,
3000300010111022,
1001021000202220,
3000300010111022,
1002002010120011,
21121121,
12120220,
1000001000222010,
0020020020012011,
21121121,
12120220,
1000001000222010,
2002002010112000,
#GOGOSTART
1111000000222010,
100200100000100010001000100000000000200000000000,
1111000010222010,
100200100000100200100000100010001000100000000000,
1111002011110020,
1111002011110020,
1111022011110220,
100000100000100000100000000000200000200000000000
#SCROLL 2.73
500000000000000000000008000000000000000000000000,
#GOGOEND
#SCROLL 0.5
7,
,
,
,
08,
#MEASURE 4/4
#SCROLL 1
111222,
100010001000100100100100,
#GOGOSTART
10121011,
1000100011101010,
10011011,
1000102011101010,
10121011,
1000100011101010,
10011011,
1011102010001010,
10121011,
1000100011101010,
1000001010001110,
1000102011101010,
10121011,
10101111,
1000001010001110,
1011102010001010,
12121011,
1000102011101010,
1000001010201110,
1000102011101010,
12121011,
1000102011101010,
1000001010201110,
1011102010001010,
12121011,
1000102011101010,
10011211,
1000102011101110,
01010101,
01022222,
#GOGOEND
#SCROLL 2.73
500000000000000000000008000000000000000000000000,
#BARLINEOFF
#SCROLL 0.5
100000000000100000100000200000000000000000000000,
#GOGOSTART
#BARLINEON
#MEASURE 8/4
100000100100100000000200200200200000100010001000,
100111222111,
100000100100100000000200200200200000100010001000,
100111222111,
#MEASURE 4/4
#SCROLL 1
12121211,
12121211,
11211211,
1020102011101010,
1020102011101010,
1020102011101010,
30030030,
0010200011101110,
#GOGOEND
4,
#END

COURSE:Normal
LEVEL:7
BALLOON:20,60
SCOREINIT:430
SCOREDIFF:110
#START
#MEASURE 8/4
#SCROLL 0.5
3003003000200010,
21201020,
3003003000200020,
1020100020020000,
3003003000200010,
21201020,
7,
0008,
30301220,
1001001000202000,
30301220,
0020020020020010,
30301220,
1001001000202000,
30301220,
0020020020020010,
30301210,
1001001000202000,
30301210,
0020020020020010,
30301210,
1001001000202000,
30301210,
1002002000102000,
22211122,
01110220,
10030000,
0020020020010010,
22211122,
01110220,
10030000,
2002002000102000,
#GOGOSTART
1011000000202000,
100111100200,
1011000000202000,
100100111100,
1011000010110000,
1011000010110000,
1011000010110000,
100000000000100000100000000000000000000000000000
#SCROLL 2.73
500000000000000000000008000000000000000000000000,
#GOGOEND
#SCROLL 0.5
7,
,
,
,
08,
#MEASURE 4/4
#SCROLL 1
111111,
100010001000100100100100,
#GOGOSTART
10101011,
10101111,
10011011,
10101111,
10101011,
10101111,
10011011,
12121011,
10101011,
10101111,
10011011,
10101111,
10101011,
10101111,
10011011,
12121011,
10101011,
10101111,
10011011,
10101111,
10101011,
10101111,
10011011,
12121011,
10101011,
10101111,
10011011,
10101111,
01010101,
01022222,
#GOGOEND
#SCROLL 2.73
500000000000000000000008000000000000000000000000,
#BARLINEOFF
#SCROLL 0.5
300000000000000000000000400000000000000000000000,
#GOGOSTART
#BARLINEON
#MEASURE 8/4
1001100000002000,
100111100111,
1001100000002000,
100111100111,
#MEASURE 4/4
#SCROLL 1
10101011,
10101111,
10101211,
10101212,
10121211,
10121212,
30030030,
01203001,
#GOGOEND
4,
#END

COURSE:Easy
LEVEL:5
BALLOON:18,50
SCOREINIT:310
SCOREDIFF:80
#START
#MEASURE 8/4
#SCROLL 0.5
3003003000000010,
01201020,
3003003000000020,
0020100020020000,
3003003000000010,
01201020,
7,
08,
30302220,
1001001000002000,
30302220,
0020020020020000,
30302220,
1001001000002000,
30302220,
0020020020020000,
30302220,
1001001000002000,
30302220,
0020020020020000,
30302220,
1001001000002000,
30302220,
1001001000002000,
10110111,
01110020,
10030000,
0020020020020000,
10110111,
01110020,
10030000,
2002002000000000,
#GOGOSTART
11000200,
1112,
11000200,
1112,
11001100,
11001100,
11001100,
100000000000100000000000000000000000000000000000
#SCROLL 2.73
500000000000000000000008000000000000000000000000,
#GOGOEND
#SCROLL 0.5
7,
,
,
,
08,
#MEASURE 4/4
#SCROLL 1
11,
1011,
#GOGOSTART
1111,
1120,
1111,
1210,
1111,
1120,
1111,
1210,
10101011,
1110,
10011010,
1110,
10101011,
1110,
10011010,
1110,
10101011,
1110,
10011010,
1120,
10101011,
1110,
10011010,
1120,
10101011,
1112,
10011010,
1112,
01010101,
01020202,
#GOGOEND
#SCROLL 2.73
500000000000000000000008000000000000000000000000,
#BARLINEOFF
#SCROLL 0.5
300000000000000000000000400000000000000000000000,
#GOGOSTART
#BARLINEON
#MEASURE 8/4
11100020,
1122,
11100020,
1122,
#MEASURE 4/4
#SCROLL 1
10101011,
1112,
10101011,
1112,
10101011,
10101011,
30030030,
,
#GOGOEND
4,
#END
