//TJADB Project
TITLE:SAKURA EXHAUST
TITLEJA:SAKURA EXHAUST
SUBTITLE:--Rio Hamamoto
SUBTITLEJA:
BPM:178
WAVE:SAKURA EXHAUST.ogg
OFFSET:-1.848
DEMOSTART:90.668 //Shinuchi:
4830/3470/1860/1300

COURSE:Oni
LEVEL:9
BALLOON:
SCOREINIT:460,1310
SCOREDIFF:113
#START
11,
11,
11,
1000000010101111,
22120212,
0020102000201110,
22120212,
000200100200102020102020,
0000000022221020, //9
1010200011102000,
1010200011102000,
1010202210102000,
10210122,
1010200021102000,
1010200021102000,
1010202111102000,
500000000000000008000000400000000000100000200000, //17
1010202211102020,
1010202211102020,
1010202212102010,
1000201000102220,
1110202211201220,
1110202211201220,
1110202212102220,
1020004010101111,
1, //26
10201210,
1110100012202000,
11201210,
1110100012202000,
11211210,
1110100012202000,
1010201010201110,
3040000022221220, //34
12212210,
2210100012202000,
12212210,
2210102012202020,
12212212,
2210100012202000,
12212212,
2210102022222000, //42
12021202,
1020102010221020,
1020002010221020,
1020002012102000,
12021202,
1020102010221020,
1020002010221020,
1010202011112212, //50
1010202011112020,
2210102022221220,
2011102212112020,
1110212021121120,
1111221211112212,
1111221212212212,
1122121211221212,
1122122200000000, //58
12,
12,
12,
11,
12,
12,
1122,
1110202011102011, //66
#GOGOSTART
2011201110102011,
2011201110102012,
2012201110102012,
2012202210102011,
2011202210102012,
2012202210102000,
1122200011212000,
1221200010102000, //74
1021102011211020,
1021102012111020,
1021102011121020,
1021121120102022,
1021102011211022,
1021102012111020,
1111221211221020,
1111221211221220, //82
#GOGOEND
2220102000201020,
0020102011102110,
2220102000201020,
000200100200202010202010,
1011101110111011,
1011101110111110,
1011101110111011,
101010122122,
0,
0,
0, //93
#END

COURSE:Hard
LEVEL:7
BALLOON:4,6,4
SCOREINIT:510,1910
SCOREDIFF:130
#START
11,
11,
11,
1000000010111000,
11210121,
01210122,
11210121,
000100200100101010101010,
0, //9
11101120,
11101120,
10121020,
10210012,
11101120,
11101120,
11101120,
500000000000000008000000400000000000000000000000, //17
1010100011102020,
1010100011102020,
10121020,
10210012,
1010100011102020,
1010100011102020,
500000000000000000000000000000000000000008000000,
11040000,
0, //26
10101210,
1010100022202000,
10101220,
1010100022202000,
10101210,
1010100022202000,
10101220,
3040000022202220, //34
11101120,
1010100022202000,
11101220,
1010100022202000,
11101120,
1010100022202000,
11101220,
21070080, //42
12021202,
12021210,
12021202,
1020002022202000,
12021202,
12021210,
12021202,
1010202011111000, //50
11221210,
1010202011101000,
22112120,
1010202011101000,
1110200011102000,
1110200011102220,
1110200011102000,
78, //58
12,
12,
12,
11,
12,
12,
1122,
1110202011102000, //66
#GOGOSTART
1110100010102000,
1110100010202000,
1110100010102000,
500000000000000008000000700000000000000800000000,
1110100010102000,
1110100020201000,
500000000000000000000000000000000000000008000000,
10201120, //74
1110100011101000,
1111100010102000,
1110100011101000,
2020222020000000,
1110100011101000,
1111101020202000,
1110100011101000,
1111101020202000, //82
#GOGOEND
11210121,
01210122,
11210121,
000100200100101010101010,
1011101000111010,
0011101000102220,
1011101000111000,
101010111111,
0,
0,
0, //93
#END

COURSE:Normal
LEVEL:6
BALLOON:4
SCOREINIT:730,3840
SCOREDIFF:215
#START
11,
11,
11,
1011,
1202,
0202,
1202,
000000000000200000000000500000000000000000080000,
0, //9
1102,
1102,
10111020,
10020000,
1102,
1102,
1102,
500000000000000008000000400000000000000000000000, //17
1112,
1112,
10111020,
10020000,
1112,
1112,
500000000000000000000000000000000000000000000008,
0,
0, //26
1101,
1200,
1101,
1200,
1101,
2200,
1101,
44000000, //34
1111,
1200,
1111,
1200,
1111,
2200,
1111,
4, //42
1122,
10201120,
1122,
1120,
1122,
10101120,
1122,
11102000, //50
1212,
11102000,
1212,
11102000,
3434,
600000000000000000000000000000000008000000000000,
3434,
78, //58
1,
1,
2,
2,
1,
12,
500000000000000000000000000000000000000000000008,
0, //66
#GOGOSTART
1212,
10112000,
1212,
10222020,
1212,
10112000,
500000000000000000000000000000000000000008000000,
20202220, //74
10101011,
10112000,
10101011,
10222020,
10101011,
20112000,
10101011,
20222000, //82
#GOGOEND
1202,
0202,
1202,
000000000000200000000000500000000000000008000000,
3333,
3333,
3333,
600000000000000000000000000000000000000000080000,
0,
0,
0, //93
#END

COURSE:Easy
LEVEL:3
BALLOON:3
SCOREINIT:540,5500
SCOREDIFF:170
#START
1,
1,
1,
11,
1101,
0101,
1101,
000000000000100000000000500000000000000000080000,
0, //9
1,
1,
11,
10020000,
1,
1,
1,
500000000000000000000000000008000000000000000000, //17
1100,
1100,
11,
10020000,
1100,
1100,
500000000000000000000000000000000000000000000008,
0,
0, //26
1100,
1200,
1100,
1200,
1100,
2200,
1100,
4, //34
1101,
1200,
1101,
1200,
1101,
2200,
1101,
4, //42
12,
1110,
12,
1110,
12,
1110,
12,
1110, //50
11,
1111,
11,
1111,
3333,
600000000000000000000000000008000000000000000000,
3333,
78, //58
2,
2,
2,
2,
2,
2,
500000000000000000000000000000000000000000000008,
0, //66
#GOGOSTART
1110,
1110,
500000000000000000000000000008000000000000000000,
1120,
1110,
1110,
500000000000000000000000000008000000000000000000,
22, //74
1111,
1110,
1111,
1120,
1111,
1110,
1111,
1120, //82
#GOGOEND
1101,
0101,
1101,
0100,
3333,
3333,
3333,
600000000000000000000000000000000000000000080000,
0,
0,
0, //93
#END
