//TJADB Project
TITLE:Buru-chan no Oya2
TITLEJA:ブルちゃんのおや2
SUBTITLE:--Yasuaki Matsuda feat. Mio Ishida & Tomomitsu Kaneko
SUBTITLEJA:腹ペコジャーニー第二章〜ブルちゃんのおや2〜 もっと食べたい1より(クラシック風)
BPM:154
WAVE:Buru-chan no Oya2.ogg
OFFSET:-1.788
DEMOSTART:81.263

COURSE:Oni
LEVEL:8
BALLOON:18,50
SCOREINIT:460
SCOREDIFF:110
#START
1002001101002010,
1001201101201010,
1001201102021220,
1022102210221022,
1002001101002010,
1001201101201010,
1002001102021220,
1022102210221222,
1001201010102010,
1020102100201220,
1001201012101220,
1000201220102110,
1001201010102010,
1020102100201220,
1001201012101220,
10002020000020200000201022000020,
1001200120021010,
1021201220201010,
1001200120102010,
1021201201201010,
1001200120021010,
1021201220201010,
1001200120102010,
1021201201201010,
1201201120112201,
1010010010220220,
1001200120021010,
0010200101201000,
1002000120021010,
1020200100201010,
40334403,
03443030,
7,
08,
3,
#MEASURE 2/4
33,
#GOGOSTART
#MEASURE 4/4
4002001120021010,
1011201202101020,
1002000110012020,
11201201,
1002101101002010,
1002101101002010,
01012212,
1012001202101000,
#GOGOEND
3434,
30330000,
1002000020120020,
1020201200203000,
434,
33000000,
1002000020120020,
1020201200201000,
#GOGOSTART
2002101020021010,
1001201020021010,
0010200120020020,
11201201,
1002101101002010,
1002101101002010,
01012212,
1011000010110020,
10334404,
04334040,
1120201120201120,
1120201201010101,
#MEASURE 3/4
500000000000000000000000000008000000,
#MEASURE 4/4
30203220,
#GOGOEND
1010201200102010,
1010201200102010,
1010201200102010,
1010201200102001,
#GOGOSTART
1002001020022010,
1010201102011010,
1002001020021010,
1001101210200020,
1002101101002010,
1210200050000000,
000000000000000000000008000000000000000000000000,
03043344,
03043344,
03043344,
09000000,
,
,
#GOGOEND
8,
1002200030400000,
#END

COURSE:Hard
LEVEL:6
BALLOON:12,14,16,14,14,4,6,10
SCOREINIT:820
SCOREDIFF:190
#START
300000000000500000000000000000000000000000000000,
000000000000000000000000000080000000000000000000,
100000000000000000000000100000000000000000000000,
500000000000000000000000000000000000000080000000,
000000000000300000000000500000000000000000000000,
000000000000000000000000000080000000000000000000,
100000000000000000000000100000000000000000600000,
000000000000000000000000000000000000000080000000,
000000000000000000000000000000000000000000000000,
000000000000000000000000000000000000000000000000,
100000100200000000100000100000000000000000000000,
100000100200000000100000200000000000000000000000,
100000100200000000100000100000000000000000000000,
100000100200000000100000200000000000000000000000,
100000100200000000100000100000000000000000000000,
100000000000000000000000000000000000100000000000,
200000000100100000000000200000000200100000000000,
100000000000900000000000000000000000000000000000,
000000000000000000000000000000000800000000000000,
000000200000200000000000000000000000100000000000,
200000000100100000000000200000000200100000000000,
100000000000900000000000000000000000000000000000,
000000000000000000000000000000000800000000000000,
000000000000200000200000000000000000100000000000,
200000000100100000000000200000000200100000000000,
900000000000000000000000000000000000000000000000,
000000000000000000000000000000000800000000000000,
000000200000200000000000000000000000100000000000,
200000000100100000000000200000000200100000000000,
100000000000500000000000000000000000000080000000,
000000000000400000400000300000300000000000300000,
000000300000300000300000300000000000300000000000,
300000000000000000000000000000000000000000000000,
100000000000000000000000000000000000000000000000,
#MEASURE 3/4
100000000000000000000000000000000000,
#MEASURE 2/4
300000000000300000000000,
#MEASURE 4/4
#GOGOSTART
200000000100100000100000200000000200200000100000,
100000000000100000100000000000000000000000000000,
000000100000100000000000100000100000100000000000,
100000100000100000000000100000200000000000200000,
100000000000100000000000200000000000200000000000,
100000000000200000000000100000000000000000000000,
100000000000000000000000100000000000100000000000,
300000000000000000000000000000000000000000000000,
#GOGOEND
100000000000200000000000100000000000200000000000,
100000000000900000000000000000000000000000000000,
000000000000000000000000800000000000000000000000,
000000000000000000000000000000000000100000000000,
200000000000100000000000200000000000100000000000,
900000000000000000000000000000000000000000000000,
000000000000800000000000000000000000000000000000,
000000000000000000000000000000000000100000000000,
#GOGOSTART
200000000100100000000000200000000200100000000000,
100000000000100000100000200000000200000000000000,
000000100000100000200000100000000000100000000000,
100000100000100000000000100000000000000000000000,
100000000000200000000000100000000000200000000000,
100000000000100000100000000000000000000000000000,
000000100000100000200000100000100000100000000000,
100000100000000000100000000000000000000000000000,
000000000000200000200000200000200000000000200000,
000000200000200000000000200000000000200000000000,
100000000000000000000000000000000000000000000000,
100000000000000000000000100000000000000000000000,
#MEASURE 3/4
100000000000000000000000000000000000,
#MEASURE 4/4
300000000000000000000000300000000000000000000000,
#GOGOEND
100000100000200000100100000000100000200000000000,
100000100000200000100100000000100000200000000000,
100000100000200000100100000000100000200000000000,
100000100000200000100100000000000000100000000000,
#GOGOSTART
200000000100100000000000200000000200100000000000,
100000000000100000100000000000000000000000000000,
000000100000100000200000100000100000200000000000,
100000100000100000000000100000000000000000000000,
200000000000200000200000100000000000100000100000,
100000100000100000000000500000000000000000000000,
000000000000000000000080000000000000000000000000,
000000100000000000100000200000200000100000200000,
000000100000000000100000200000200000100000200000,
000000100000000000100000200000200000100000100000,
900000000000000000800000000000000000000000000000,
900000000000000000800000000000000000000000000000,
900000000000000000000000000000000000000000800000,
#GOGOEND
000000000000000000000000000000000000000000000000,
000000000000000000000000200000200000000000000000,
#END

COURSE:Normal
LEVEL:5
BALLOON:10,12,14,12,12,4,4,6
SCOREINIT:940
SCOREDIFF:220
#START
3500,
000000000000000000000000000008000000000000000000,
11,
500000000000000000000000000000000000000008000000,
0350,
000000000000000000000000000008000000000000000000,
10001006,
000000000000000000000000000000000000000008000000,
,
,
1002001010000000,
1002001000000000,
1002001010000000,
1002001000000000,
1002001010000000,
1001,
212,
1900,
0008,
02200010,
2120,
1900,
0008,
00220010,
2121,
9,
0008,
02200010,
2120,
100000000000500000000000000000000000000008000000,
00303001,
01101010,
1,
1,
1,
#MEASURE 2/4
33,
#GOGOSTART
#MEASURE 4/4
2120,
1100,
01101010,
1110,
1122,
1210,
1011,
3,
#GOGOEND
1212,
1900,
0008,
0001,
2121,
9,
08,
0001,
#GOGOSTART
2120,
1100,
01101010,
1110,
1212,
1100,
01101010,
1110,
00222002,
0222,
1,
11,
#MEASURE 3/4
1,
#MEASURE 4/4
33,
#GOGOEND
3,
1120,
1120,
1101,
#GOGOSTART
2120,
1100,
01101010,
1110,
11,
1130,
,
01001010,
01001010,
01001010,
98,
98,
9000000000000008,
#GOGOEND
,
00003300,
#END

COURSE:Easy
LEVEL:4
BALLOON:10,12,14,12,12,3,4,6
SCOREINIT:880
SCOREDIFF:230
#START
300000000000500000000000000000000000000000000000,
000000000000000000000000000080000000000000000000,
100000000000000000000000100000000000000000000000,
500000000000000000000000000000000000000080000000,
000000000000300000000000500000000000000000000000,
000000000000000000000000000080000000000000000000,
100000000000000000000000100000000000000000600000,
000000000000000000000000000000000000000080000000,
000000000000000000000000000000000000000000000000,
000000000000000000000000000000000000000000000000,
100000000000000000000000000000000000000000000000,
100000000000000000000000100000000000000000000000,
100000000000000000000000000000000000000000000000,
100000000000000000000000000000000000000000000000,
100000000000000000000000100000000000000000000000,
100000000000000000000000000000000000100000000000,
000000000000100000000000000000000000000000000000,
100000000000900000000000000000000000000000000000,
000000000000000000000000800000000000000000000000,
000000000000000000000000000000000000100000000000,
000000000000100000000000000000000000000000000000,
100000000000900000000000000000000000000000000000,
000000000000000000000000800000000000000000000000,
000000000000000000000000000000000000100000000000,
000000000000100000000000000000000000100000000000,
900000000000000000000000000000000000000000000000,
000000000000000000000000800000000000000000000000,
000000000000000000000000000000000000100000000000,
000000000000100000000000000000000000000000000000,
100000000000500000000000000000000000000080000000,
000000000000300000000000300000000000000000000000,
100000000000100000000000100000000000100000000000,
100000000000000000000000000000000000000000000000,
100000000000000000000000000000000000000000000000,
#MEASURE 3/4
100000000000000000000000000000000000,
000000000000000000000000000000000000,
#MEASURE 2/4
300000000000300000000000,
000000000000000000000000,
#MEASURE 4/4
#GOGOSTART
000000000000000000000000000000000000000000000000,
100000000000100000000000000000000000000000000000,
000000000000100000000000100000000000100000000000,
100000000000000000000000100000000000000000000000,
100000000000000000000000200000000000000000000000,
100000000000000000000000200000000000000000000000,
100000000000000000000000000000000000000000000000,
300000000000000000000000000000000000000000000000,
#GOGOEND
100000000000000000000000100000000000000000000000,
100000000000900000000000000000000000000000000000,
000000000000000000000000800000000000000000000000,
000000000000000000000000000000000000100000000000,
000000000000100000000000000000000000100000000000,
900000000000000000000000000000000000000000000000,
000000000000800000000000000000000000000000000000,
000000000000000000000000000000000000100000000000,
#GOGOSTART
000000000000100000000000000000000000000000000000,
100000000000100000000000000000000000000000000000,
100000000000000000000000100000000000000000000000,
100000000000100000000000100000000000000000000000,
100000000000000000000000100000000000000000000000,
100000000000100000000000000000000000000000000000,
100000000000000000000000100000000000000000000000,
100000000000100000000000100000000000000000000000,
000000000000000000000000000000000000000000000000,
000000000000000000000000000000000000000000000000,
100000000000000000000000000000000000000000000000,
100000000000000000000000100000000000000000000000,
#MEASURE 3/4
100000000000000000000000000000000000,
000000000000000000000000000000000000,
#MEASURE 4/4
300000000000000000000000300000000000000000000000,
#GOGOEND
300000000000000000000000000000000000000000000000,
100000000000100000000000000000000000000000000000,
100000000000100000000000000000000000000000000000,
100000000000100000000000000000000000100000000000,
#GOGOSTART
000000000000100000000000000000000000000000000000,
100000000000100000000000000000000000000000000000,
000000000000100000000000100000000000100000000000,
100000000000100000000000100000000000000000000000,
100000000000000000000000100000000000000000000000,
100000000000000000000000300000000000000000000000,
000000000000000000000000000000000000000000000000,
100000000000000000000000000000000000000000000000,
100000000000000000000000000000000000000000000000,
100000000000000000000000100000000000000000000000,
900000000000000000800000000000000000000000000000,
900000000000000000800000000000000000000000000000,
900000000000000000000000000000000000000000800000,
#GOGOEND
000000000000000000000000000000000000000000000000,
000000000000000000000000300000300000000000000000,
#END
