//TJADB Project
TITLE:Amaterasu
TITLEJA:天照
SUBTITLE:--Tatsh a.k.a. Zeami
SUBTITLEJA:Tatsh a.k.a 世阿弥
BPM:125
WAVE:Amaterasu.ogg
OFFSET:-2.112
DEMOSTART:88.962 //Shinuchi:
4590/2590/1710/1100

COURSE:Oni
LEVEL:10
BALLOON:15,40
SCOREINIT:410,1160
SCOREDIFF:98
#START
20020020,
20020020,
20020020,
2000000020000002,
20020020,
2000002000002002,
22,
22,
#BPMCHANGE 126.87
0,
#BPMCHANGE 200
100000202020100100000100200000200000100000000000, //10
#GOGOSTART
3000201000201011,
1120201000201012,
1120201000201011,
202020200000200000100000000000200000200000100100,
1110201000201011,
1120201000201012,
1120201000201011,
202020200000200000100100202020200100200000200000, //18
0011202012202012,
100200100000200000102020200000100100200000000000,
4000121021201210,
000200200100100222200200,
0011202012202012,
100200100000200000102020200000100100200000000000,
1210202012102012,
1021201211222000, //26
#GOGOEND
1110202010202020,
1110201110102010,
1110202010202020,
1110201211202010,
1110202010202020,
1110201110102010,
1110202010202020,
1110201211202010, //34
1111201112112011,
2121202011121121,
1211211212121011,
2111202111212120,
1111201112112011,
2121202011121121,
1211211212121011,
2111202111212120, //42
3000300022200020,
#MEASURE 3/4
002220200020,
#MEASURE 4/4
3000300022202010,
#MEASURE 3/4
002220101020,
#MEASURE 4/4
3000300022200020,
#MEASURE 3/4
002220200020,
#MEASURE 4/4
3000300022202010,
#MEASURE 3/4
022100, //50
#MEASURE 4/4
3000300011102010,
1210200011102020,
3000300011102010,
1210200022202020,
3000300011102010,
1210200011102020,
3000300011102010,
1210200022202020, //58
32221222,
1002201022111020,
32221222,
1002201020122020,
32221222,
1002201022111020,
32223222,
3002203002203000,
70000008,
33, //68
#GOGOSTART
2110201021102010,
2110201000212120,
2110201021102010,
2211202000212120,
2110201021102010,
2110201000212120,
1211212212112122,
1212122112121220,
2111201021112010,
2110201000212120,
2111201021112010,
2211202000212120, //80
2111201021112010,
2110201000212120,
2111201021112010,
000200200100100222200200,
0011202012202012,
100200100000200000102020200000100100200000000000,
4000121021201210,
000200200100100222200200,
0011202012202012,
100200100000200000102020200000100100200000000000,
1210202012102012,
1221221211222000, //92
#GOGOEND
3021001021012221,
0020100030000211,
#MEASURE 2/4
0102,
#MEASURE 4/4
1021001021001002,
#MEASURE 2/4
01000022,
#MEASURE 4/4
7,
0,
0,
8,
0,
0, //103
#END

COURSE:Hard
LEVEL:8
BALLOON:10,35
SCOREINIT:470,1820
SCOREDIFF:120
#START
2,
2,
2,
22,
2,
2,
22,
22,
#BPMCHANGE 126.87
0,
#BPMCHANGE 200
1022201020201000, //10
#GOGOSTART
30210210,
1110201000201000,
1110201000201000,
2220201000202000,
11210210,
1110201000201000,
1110201000201000,
2220100022201000, //18
01221221,
0020002220000000,
00112211,
0020201010222000,
01221221,
0020201120000000,
11220121,
0020201010222000, //26
#GOGOEND
11221022,
10221120,
11221022,
10221220,
11221022,
10221120,
11221022,
10221220, //34
11211120,
11221120,
11211120,
1010202010222000,
11211120,
11221120,
11211120,
1010202010222000, //42
30300202,
#MEASURE 3/4
002220200000,
#MEASURE 4/4
30300202,
#MEASURE 3/4
002220001000,
#MEASURE 4/4
30300202,
#MEASURE 3/4
002220200000,
#MEASURE 4/4
30300202,
#MEASURE 3/4
022100, //50
#MEASURE 4/4
30301120,
1010200011102020,
30301120,
1010200022202000,
30301120,
1010200011102020,
30301120,
1010200022202000, //58
30221022,
1000201000111020,
30221022,
1000201000222020,
30221022,
1000201000111020,
30223022,
30040040,
70000008,
33, //68
#GOGOSTART
1110100011101000,
1110101000202020,
1110100011101000,
2220202000202020,
1110100011101000,
1110101000202020,
11221122,
1110202011102020,
1110100011101000,
1110101000202020,
1110100011101000,
2220202000202020, //80
1110100011101000,
1110101000202020,
1110200011102020,
0020201010222000,
01221221,
0020002220000000,
00112211,
0020201010222000,
01221221,
0020201120000000,
11220121,
0020201010222000, //92
#GOGOEND
500000000000000000000000000000000000000000000008,
0250,
#MEASURE 2/4
000000000008000000000000,
#MEASURE 4/4
2,
#MEASURE 2/4
0,
#MEASURE 4/4
7,
0,
0,
8,
0,
0, //103
#END

COURSE:Normal
LEVEL:7
BALLOON:13,25
SCOREINIT:560,2810
SCOREDIFF:153
#START
2,
2,
2,
22,
2,
2,
22,
22,
#BPMCHANGE 126.87
0,
#BPMCHANGE 200
0001, //10
#GOGOSTART
10010210,
10010210,
10010210,
10010220,
10010210,
10010210,
10010210,
22102210, //18
01111022,
02002000,
00111011,
02201000,
01111022,
02202000,
500000000000000000000000000000000000000008000000,
0220, //26
#GOGOEND
1202,
10001120,
1202,
10001120,
1202,
10001120,
1202,
10001120, //34
1212,
10201120,
1212,
10201120,
1212,
10201120,
1212,
10201120, //42
30300202,
#MEASURE 3/4
02,
#MEASURE 4/4
30300202,
#MEASURE 3/4
020,
#MEASURE 4/4
30300202,
#MEASURE 3/4
02,
#MEASURE 4/4
30300202,
#MEASURE 3/4
020, //50
#MEASURE 4/4
3302,
10201120,
3302,
10201220,
3302,
10201120,
3302,
10201220, //58
1212,
10210120,
1212,
10210220,
1212,
10210120,
3232,
30020020,
7,
08, //68
#GOGOSTART
11101110,
11110220,
11101110,
22220220,
11101110,
11110220,
10112011,
20201120,
11101110,
11110220,
11101110,
22220220, //80
11101110,
11110220,
11101112,
02202000,
01111011,
02004000,
00111011,
02201000,
01111011,
02204000,
11110111,
02201000, //92
#GOGOEND
3,
0230,
#MEASURE 2/4
0,
#MEASURE 4/4
2,
#MEASURE 2/4
0,
#MEASURE 4/4
7,
0,
0,
8,
0,
0, //103
#END

COURSE:Easy
LEVEL:4
BALLOON:9,18
SCOREINIT:520,5220
SCOREDIFF:170
#START
2,
2,
2,
22,
2,
2,
22,
22,
#BPMCHANGE 126.87
0,
#BPMCHANGE 200
0, //10
#GOGOSTART
10010000,
10010000,
10010000,
20020000,
10010000,
10010000,
10010000,
22, //18
1110,
02,
1110,
0220,
1110,
02,
1110,
0220, //26
#GOGOEND
12,
1,
12,
1120,
12,
1,
12,
1120, //34
12,
12,
1212,
1120,
12,
12,
1212,
1120, //42
30300002,
#MEASURE 3/4
0,
#MEASURE 4/4
30300002,
#MEASURE 3/4
0,
#MEASURE 4/4
30300002,
#MEASURE 3/4
0,
#MEASURE 4/4
30300002,
#MEASURE 3/4
0, //50
#MEASURE 4/4
3302,
0202,
3302,
0202,
3302,
0202,
3302,
0202, //58
11,
10010000,
11,
20020000,
11,
10010000,
33,
3,
7,
08, //68
#GOGOSTART
1110,
10010000,
1110,
20020000,
1110,
10010000,
11,
500000000000000000000000000008000000000000000000,
1110,
10010000,
1110,
20020000, //80
1110,
10010000,
1110,
0220,
10101002,
04,
1110,
0220,
10101002,
04,
1110,
0220, //92
#GOGOEND
3,
0230,
#MEASURE 2/4
0,
#MEASURE 4/4
2,
#MEASURE 2/4
0,
#MEASURE 4/4
7,
0,
0,
8,
0,
0, //103
#END
