//TJADB Project
TITLE:Senshaku Zesshou no Fantasia
TITLEJA:仙酌絶唱のファンタジア
SUBTITLE:--Reitaisai Collab Unit/Touhou Project
BPM:160
WAVE:Senshaku Zesshou no Fantasia.ogg
OFFSET:-1.419
DEMOSTART:100.794

COURSE:Oni
LEVEL:9
BALLOON:131
SCOREINIT:420
SCOREDIFF:100
#START
#BARLINEOFF
#MEASURE 1/4
0022,
#BARLINEON
#MEASURE 4/4
1000300030210210,
1020200211122120,
3000300030210210,
2212102102102212,
1000300030210210,
1020200211122120,
1022102212211210,
3003003000222000,
1212,
1001202012102000,
1020102010221020,
1020102220102222,
1212,
1001202012102020,
1020102010221020,
500000000000000000000000000000000008000000000000,
1010200210002010,
0010200210112000,
1010200210002010,
0010200210112010,
0010200210112010,
0010200210112050,
000000000000000000000008000000200000200000500000,
000000000000000000000000000000000008000000000000,
10011120,
1110202000222010,
1110222011102220,
1000202022221121,
10011120,
1110202000222010,
1110222010201020,
100100200000100100200000500000000000000008000000,
100100100000100000101010100000100000200000100000,
100100100000200000101010100000100000200000100000,
100200100000200000101010100000100000200000100000,
100200100000200000101010100000100000200000100000,
2011201020112010,
2011201020112010,
1010121010101210,
1122112211221122,
200020002000200020002000200200200200200200200200,
2020202022222000,
1022101010221050,
000008000000400000400000600000000008000000000000,
1022101012102050,
000008000000400000400000600000000008000000000000,
1022101010221010,
0022102030303000,
1022101010221050,
000008000000400000400000600000000008000000000000,
1022101010221050,
000008000000400000400000600000000008000000000000,
1022101012102050,
000008000000400000400000600000000008000000000000,
1022101010221010,
02123330,
33304446,
000000000000000000000008000000200100200000000000,
1021012010112010,
1021012010202011,
1021012010210120,
300000200200200000600008000000300000400000400000,
1021012010112010,
1021012010202011,
1021021020202050,
000000000000000000000008000000000000400000000000,
1010202010222020,
1110202010102011,
1010202010222020,
1110202010202011,
1010202010222020,
1110202010102011,
1010202010222020,
1110222210222222,//75
#GOGOSTART
1021020102012212,
1221010210202222,
1111022101012210,
1111222211212020,
1021020102012212,
1221010210202222,
1111202211202212,
2021212011212222,//83
#GOGOEND
7,
,
,
,
#BPMCHANGE 146.9
,
#BPMCHANGE 133.37
,
#BPMCHANGE 112.3
000000000000000000000008000000000000000000000000,
#BPMCHANGE 81.73
0000003000000000,
#END

COURSE:Hard
LEVEL:5
BALLOON:18,100
SCOREINIT:440
SCOREDIFF:130
#START
#BARLINEOFF
#MEASURE 1/4
,
#BARLINEON
#MEASURE 4/4
1000100010010010,
0020200020020020,
1000100010010010,
0010100020020020,
1000100010010010,
0020200020020020,
1000100010010010,
4004004000000000,
1212,
10112020,
12121010,
12121000,
1212,
10112020,
12121010,
500000000000000000000000000000000008000000000000,
20202021,
01201120,
20202021,
01201121,
01201121,
01201125,
000000000000000000000008000000000000000000500000,
000000000000000000000000000000000008000000000000,
10011120,
10000222,
1212,
1,
10011120,
12,
11221122,
12121000,
10010020,
10010020,
5,
000000000008000000000000000000000000100000100000,
10010020,
500000000000000000000000000000000008000000000000,
7,
08,
2222,
22222220,
11101121,
0440,
11101121,
0440,
11101121,
02123330,
11101121,
0440,
11101121,
0440,
11101121,
0440,
11101121,
02123330,
33304446,
000000000000000000000008000000000000000000000000,
1001001020002000,
1001001020202000,
1001001020020020,
30030344,
1001001020002000,
1001001020202000,
1001001020202050,
000000000000000000000008000000000000000000000000,
11221022,
10221120,
11221022,
10221220,
11221022,
10221120,
11221022,
10221220,//75
#GOGOSTART
11221122,
11221120,
11221122,
11221220,
11221122,
11221120,
11221122,
11221220,//83
#GOGOEND
7,
,
,
,
#BPMCHANGE 150
,
#BPMCHANGE 130
,
#BPMCHANGE 120
08,
#BPMCHANGE 80
03,
,
#END

COURSE:Normal
LEVEL:5
BALLOON:14,80
#START
#BARLINEOFF
#MEASURE 1/4
,
#BARLINEON
#MEASURE 4/4
1110,
02202000,
1110,
01102000,
1110,
02202000,
1110,
3003003000000000,
1110,
10111000,
1110,
22202000,
1110,
10111000,
1110,
500000000000000000000000000000000008000000000000,
20202002,
,
20202002,
00000002,
00202002,
00202005,
000000000000000000000008000000000000000000500000,
000000000000000000000000000000000008000000000000,
10001110,
1,
1212,
1,
10001110,
12,
11101110,
4440,
10010010,
10010010,
5,
000000000008000000000000000000000000100000100000,
10010010,
500000000000000000000000000000000008000000000000,
7,
08,
,
,
11101000,
0440,
11101000,
0330,
11101001,
0144,
11101000,
0440,
11101000,
0440,
11101000,
0330,
11101001,
0144,
30003006,
000000000000000000000008000000000000000000000000,
1001001020000000,
1001001020000000,
1001001020000000,
30030344,
1001001020000000,
1001001020000000,
1001001020000050,
000000000000000000000008000000000000000000000000,
11101010,
2220,
11101010,
2220,
11101010,
2220,
11101010,
2220,//75
#GOGOSTART
10101011,
1212,
10101011,
1212,
10101011,
1212,
10101011,
1234,//83
#GOGOEND
7,
,
,
,
#BPMCHANGE 150
,
#BPMCHANGE 130
,
#BPMCHANGE 120
08,
#BPMCHANGE 80
03,
,
#END

COURSE:Easy
LEVEL:3
BALLOON:3,10,50
#START
#BARLINEOFF
#MEASURE 1/4
,
#BARLINEON
#MEASURE 4/4
1110,
02,
1110,
02,
1110,
02,
1110,
78,
11,
1110,
11,
2220,
11,
1110,
11,
500000000000000000000000000000000008000000000000,
20000002,
,
20000002,
00000002,
00002002,
00002005,
000000000000000000000008000000000000000000500000,
000000000000000000000000000000000008000000000000,
1,
1,
1110,
2,
1,
1,
1110,
2220,
1001,
1001,
5,
000000000008000000000000000000000000100000000000,
1001,
1,
7,
08,
,
,
1110,
0440,
1110,
0440,
1110,
0033,
1110,
0440,
1110,
0440,
1110,
0440,
1110,
0033,
30003006,
000000000000000000000008000000000000000000000000,
12,
1022,
12,
10030030,
12,
1022,
10001005,
000000000000000000000008000000000000000000000000,
1110,
22,
1110,
22,
1110,
22,
1110,
22,//75
#GOGOSTART
11,
1212,
11,
1212,
11,
1212,
11,
3434,//83
#GOGOEND
7,
,
,
,
#BPMCHANGE 150
,
#BPMCHANGE 130
,
#BPMCHANGE 120
08,
#BPMCHANGE 80
03,
,
#END
