//TJADB Project
TITLE:Garyoutensei
TITLEJA:画竜点睛
SUBTITLE:--Kakumi Nishigomi
BPM:134
WAVE:Garyoutensei.ogg
OFFSET:-3.216
DEMOSTART:11.967

COURSE:Oni
LEVEL:8
SCOREINIT:500
SCOREDIFF:130
#START
500008000000000000000000000000000000000000000000,
3,
3,
#BRANCHSTART r,1,2
#N
33000000,
3000000011111000,
1010120201012020,
1010120201012020,
1010120201012020,
1111101111100000,
#GOGOSTART
1011101110111111,
1011101110111111,
1011101110111111,
1011101110111111,
1021102110211121,
1021102110211121,
1021102110211121,
100000200100100000200000100010001000100000000000,
1011201120112211,
1011201120112211,
1011201120121122,
1011201120121122,
1011201120122122,
1011201120112210,
100010001000100000200000100010001000100000200000,
100010001000100010001000100000200200200000000000,
#GOGOEND
3010120202221110,
3010120202212110,
3010120202112210,
1111101111100000,
3010120201221120,
3010120201121220,
3010120201112220,
1111100000111000,
2002200220022222,
2002200220022222,
2002200220022220,
5008,
302220302220,
302220300000,
#GOGOSTART
1011101110111111,
1011101110111111,
1011101110111111,
1011101110111111,
1021102110211121,
1021102110211121,
1021102110211121,
100000200100100000200000100010001000100000000000,
1011201120112211,
1011201120112212,
1011201120121221,
1011201120122122,
1011201120121122,
1011201120121120,
2201102201102222,
1102201102201111,
2201102201100000,
311300000000,
#GOGOEND
0,
#E
33020202,
3000000011111000,
1020122102012210,
1020122102012220,
1020122101221020,
1111101111100000,
#GOGOSTART
1022102211011020,
1022102211011020,
1022102102102120,
1021021021021120,
1022102211011020,
1022102211011020,
1021021021021220,
100000200200100000200000100010001000300000000000,
1022102211011020,
1022102211011020,
1022102102102120,
1021021021021120,
1022102211011020,
1022102211011020,
1021021002101210,
111111100300,
#GOGOEND
3020122102012210,
3020122102012220,
3020122101221020,
1111101111100000,
3020122102012210,
3020122102012220,
3020122101221020,
100100100100100000000000100010001000100000000000,
2220222022222220,
2220222022222000,
2222222022222220,
5008,
301110301110,
301110300400,
#GOGOSTART
1022102211011020,
1022102211011020,
1022102102102120,
1021021021021120,
1022102211011020,
1022102211011020,
1021021021021220,
100000200200100000200000100010001000300000000000,
1022102211011020,
1022102211011020,
1022102102102120,
1021021021021120,
1022102211011020,
1022102211011020,
1112201112202222,
1111201111202222,
1111101111102222,
1111100000000000,
#GOGOEND
0,
#M
1011202220222220,
3000000022222000,
1010220101021020,
1110220101021020,
1111220101021020,
1111201111203000,
#GOGOSTART
1011201011201120,
1011201011201120,
1011201011201120,
1111201111201111,
1011201011201120,
1011201011201120,
1011201011201120,
101010100200200000101010100200200000100100100100,
1011221011221120,
1011221011221120,
1011221011221120,
2211202211202112,
1011221011221120,
1011221011221120,
1120012100211021,
1101110111011111,
#GOGOEND
1010220101021020,
1110220101021020,
1111220101021020,
1111201111203000,
1010220101021020,
1110220101021120,
1111220101121122,
1111100000222000,
2222200000010010,
2222200000010010,
2222200020010010,
10,
121211202022,
100020001000200010001000200000200000200200200200,
#GOGOSTART
1011201011201120,
1011201011201120,
1011201011201120,
1111221111221111,
1011201011201120,
1011201011201120,
1011201011201120,
101010100200200000101010100200200000100100100100,
1011221011221122,
1011221011221122,
1011221011221122,
2221102221103000,
1011221011221122,
1011221011221122,
1101102202201100,
1101202202101100,
200100100200200000200100100200200000202020202020,
1111100000000000,
#GOGOEND
0,
#BRANCHEND
#END

COURSE:Hard
LEVEL:7
SCOREINIT:500
SCOREDIFF:120
#START
,
3,
3,
33000000,
3000000011111000,
3000000300000000,
3000000300000000,
3030000300000000,
1111101111100000,//9
#GOGOSTART
1011101110111010,
1011101110202000,
1011101110111011,
1011101110202000,
1011101110222000,
1011101110222000,
1011101110111011,
100000100100100000000000100010001000100000000000,
1011101110222020,
1011101110202000,
1011101110222020,
1011101110202000,
1011102220222011,
1011102220202000,
1011102220222020,
100000100100100000000000100010001000100000000000,//25
#GOGOEND
1010110101011000,
1010110101011000,
1010110101011000,
1111101111100000,
1010220101022000,
1010220101022000,
1010220101022000,
1111100000111000,
2220222020202000,
2220200220202000,
2220222022202000,
500000000000000000000000000000000008000000000000,
101010102220,
111100,//39
#GOGOSTART
1011101110111010,
1011101110202000,
1011101110111011,
1011101110202000,
1011101110222020,
1011101110202000,
1011101110222022,
200000100100100000000000100010001000100000000000,
1011101110111111,
1011101110222020,
1011101110111111,
1011101110222020,
1011201120112020,
1011201120112020,
1102201102200000,
1102201102200000,
1102201102200000,
1101100000000000,//57
#GOGOEND
,
#END

COURSE:Normal
LEVEL:6
SCOREINIT:550
SCOREDIFF:160
#START
,
3,
3,
3,
3000000010111000,
3000000300000000,
3000000300000000,
3000000300000000,
30030000,//9
#GOGOSTART
1001100010101000,
1001100010111000,
1001100010101000,
1001101010000000,
1001100020202000,
1001100020222000,
1001100010011000,
1001101010003000,
1001101010101000,
1001101020202000,
1001101010111000,
1001101010000000,
1011100020222000,
1011100020222000,
1001100020022000,
1001101010004000,//25
#GOGOEND
1010101100000000,
1010101100000000,
1010101100000000,
30030000,
1010102200000000,
1010102200000000,
1010102200000000,
1110100000000000,
2220202020202000,
2220202020202000,
2220202020202000,
500000000000000000000000000000000008000000000000,
111100,
111100,//39
#GOGOSTART
1001100010101000,
1001100010111000,
1001100010101000,
1001101010000000,
1001100020202000,
1001100020222000,
1001100010011000,
1001101010003000,
1001101010101000,
1001101020202000,
1001101010111000,
1001101010000000,
1001101020202000,
1001100010011000,
1010102200000000,
1010102200000000,
1010102200000000,
3300,//57
#GOGOEND
,
#END

COURSE:Easy
LEVEL:5
SCOREINIT:590
SCOREDIFF:200
#START
,
3,
3,
3,
3011,
3000000300000000,
3000000300000000,
3000000300000000,
30030000,//9
#GOGOSTART
1110,
1110,
1110,
1001100010000000,
1120,
1120,
1120,
1001100010000000,
10111000,
11,
10111000,
11,
20111000,
22,
20111000,
23,//25
#GOGOEND
1000100100000000,
1000100100000000,
1000100100000000,
30030000,
1000100100000000,
1000100100000000,
1000100100000000,
1100,
2220,
2220,
2220,
500000000000000000000000000000000008000000000000,
33,
33,//39
#GOGOSTART
1001100010000000,
11,
1001100010000000,
11,
1001100010000000,
22,
1001100010000000,
22,
1001100010000000,
1110,
1001100010000000,
1110,
1001100010000000,
10111000,
30030000,
30030000,
30030000,
3300,//57
#GOGOEND
,
#END
