//TJADB Project
TITLE:Abandoned Temple Final Second
TITLEJA:Abandoned Temple Final 2nd
SUBTITLE:--Rio Hamamoto/TEKKEN 7 FATED RETRIBUTION
SUBTITLEJA:「鉄拳7 FR」より
BPM:276
WAVE:Abandoned Temple Final Second.ogg
OFFSET:-3.118
DEMOSTART:17.029 //shinuchi:
7130/4140/2560/1580

COURSE:Oni
LEVEL:9
BALLOON:3,50,6
SCOREINIT:550,1620
SCOREDIFF:133
#START
#MEASURE 8/4
#SCROLL 0.5
3,
0,
0000000000002222,
10001020002010002200102000102010,
1000100010001222,
10002000100000001000200010002200,
1020100010221222,
10101020002010002200102010201010, //8
1000000010110010,
1001001010011011,
1000000010110011,
1001001010111101,
1111200010021020,
1021102010021021,
1111200010021021,
10101020002010002200102010102020,
#GOGOSTART
1112112121121222,//17
#GOGOEND
1011011010110110,
1011011010120120,
1011011020110110,
2011011020127080,
#SCROLL 0.7
#GOGOSTART
10102010102010001110201010201000,
10102010102010001110201010102000,
10102010102010001110201010201000,
10102010102010102220102010102000, //25
#GOGOEND
#SCROLL 0.5
1000000020110010,
1001001020011011,
1110100020110011,
1001001020111201,
1111200010021020,
1021102010021021,
1111200010021021,
10101020002010002200102010102020,
#GOGOSTART
1112112121121222, //34
1002122212221222,
1002122211212022,
1222112212211021,
500000000000000000000008000000000000000000000000500000000000000000000008000000000000000000100100,
1002122212212010,
1002122212112000,
10000010200010201000200010001011,
10002010202010001022201020202020, //42
#MEASURE 6/4
100000111000101010002220,
100000111000102010002220,
100000102000222010001110,
100000102000222010102220,
#GOGOEND
7,
0,
0,
800000000000000020202022, //50
1,
0,
0,
0,
100200111002,
100200100010,
200000111000102210001010,
200000102020202000000011, //58
#MEASURE 8/4
1001101010011010,
1001101010011010,
1001101110011011,
1001101110011010,
#SCROLL 0.7
#GOGOSTART
10102010102010102220102010102010,
10201010201010201110201010201000,
#SCROLL 0.8
10102010102010102220102010102010,
10201010201010201110202020201000, //66
#GOGOEND
#SCROLL 0.5
10001020002010002200102010201010,
700000000000000000000000000008000000000000000000000000000000000000000000000000000000000000000000,
0, //69
#END

COURSE:Hard
LEVEL:6
BALLOON:38
SCOREINIT:640,2930
SCOREDIFF:183
#START
#MEASURE 8/4
#SCROLL 0.5
3,
0,
0,
3004003040030040,
1000100010001110,
12101212,
1010100010201110,
3004003040030040, //8
1000000010010010,
1001001010010010,
1000000010010010,
1001001010001000,
1110100010011010,
1001101010011010,
1110100010011010,
3004003040030040,
#GOGOSTART
600000000000000000000000000000000000000000000000000000000000000000000000000000000008000000000000, //17
#GOGOEND
11,
100000000000000000000000000000000000000000000000500000000000000000000000000000000008000000000000,
11,
1014,
#GOGOSTART
1011011010110110,
100000000000100000100000000000100000100000000000500000000000000000000000000000000008000000000000,
1011011010110110,
3004003040030040, //25
#GOGOEND
3000000020010010,
1001001020010010,
1000000020010010,
1001001020001000,
1110100010011020,
1011101010011020,
1110100010011020,
3004003040030040,
#GOGOSTART
600000000000000000000000000000000000000000000000000000000000000000000000000000000008000000000000, //34
1000111010101000,
1000111010102000,
1000111010201000,
500000000000000000000008000000000000000000000000500000000000000000000008000000000000000000000000,
1000111020101000,
1000111020102000,
10121211,
1001102010011020, //42
#MEASURE 6/4
100220100020,
100220100020,
100220101020,
100220102220,
#GOGOEND
7,
0,
0,
8, //50
3,
0,
0,
0,
100200101000,
100200100010,
100200111000,
100022220000, //58
#MEASURE 8/4
1001100010011000,
1001100010011010,
1001100010011000,
1001100010011010,
#GOGOSTART
1001101110011011,
1001101110011011,
1011101110111011,
1011101110222000, //66
#GOGOEND
3004003040030040,
3,
0, //69
#END

COURSE:Normal
LEVEL:4
BALLOON:34
SCOREINIT:730,4870
SCOREDIFF:233
#START
#MEASURE 8/4
#SCROLL 0.5
3,
0,
0,
3003003030030030,
1112,
10101011,
1112,
3003003030030030, //8
11,
11,
11,
1011,
11101010,
1111,
11101010,
3003003030030030,
#GOGOSTART
600000000000000000000000000000000000000000000000000000000000000000000008000000000000000000000000, //17
#GOGOEND
11,
1011,
11,
1014,
#GOGOSTART
11101110,
11102220,
11101110,
600000000000000000000000000000000000000000000000000000000000000000000008000000000000000000000000, //25
#GOGOEND
32,
12,
12,
1021,
11101010,
1111,
11101010,
3003003030030030,
#GOGOSTART
600000000000000000000000000000000000000000000000000000000000000000000008000000000000000000000000, //34
10111010,
10111020,
10111010,
33,
10111020,
10222020,
10111020,
11102220, //42
#MEASURE 6/4
9,
0,
0,
9,
#GOGOEND
8,
0,
0,
0, //50
3,
0,
0,
0,
101,
101,
101,
2, //58
#MEASURE 8/4
1111,
11101010,
1111,
11101010,
#GOGOSTART
11101110,
11101110,
11111111,
11111110, //66
#GOGOEND
600000000000000000000000000000000000000000000000000000000000000000000008000000000000000000000000,
3,
0, //69
#END

COURSE:Easy
LEVEL:3
BALLOON:15,28,15
SCOREINIT:780,8910
SCOREDIFF:318
#START
#MEASURE 8/4
#SCROLL 0.5
3,
0,
0,
500000000000000000000000000000000000000000000000000000000008000000000000000000000000000000000000,
1,
11,
1,
500000000000000000000000000000000000000000000000000000000008000000000000000000000000000000000000, //8
11,
11,
11,
11,
1111,
1111,
1111,
500000000000000000000000000000000000000000000000000000000000000000000008000000000000000000000000,
#GOGOSTART
600000000000000000000000000000000000000000000000000000000008000000000000000000000000000000000000, //17
#GOGOEND
11,
1011,
11,
1014, //21
#GOGOSTART
3333,
3333,
7,
00000800, //25
#GOGOEND
31,
11,
11,
12,
1111,
1111,
1111,
500000000000000000000000000000000000000000000000000000000000000000000008000000000000000000000000,
#GOGOSTART
600000000000000000000000000000000000000000000000000000000008000000000000000000000000000000000000, //34
1011,
1011,
1011,
33,
1011,
1011,
1011,
1212, //42
#MEASURE 6/4
9,
0,
0,
9,
#GOGOEND
8,
0,
0,
0, //50
3,
0,
0,
0,
1,
1,
1,
2, //58
#MEASURE 8/4
11,
1011,
11,
1011,
#GOGOSTART
3333,
3333,
7,
00000800, //66
#GOGOEND
500000000000000000000000000000000000000000000000000000000008000000000000000000000000000000000000,
3,
0, //69
#END
