//TJADB Project
TITLE:Mitsuboshi☆☆★
TITLEJA:ミツボシ☆☆★
SUBTITLE:--kyo feat. Sayuri Hara/THE iDOLM@STER ONE FOR ALL
SUBTITLEJA:「アイドルマスター シンデレラガールズ」より
BPM:175
WAVE:Mitsuboshi.ogg
OFFSET:-1.583
DEMOSTART:50.947 //shinuchi:
5650/4030/2270/1850/1170

COURSE:Edit
LEVEL:9
BALLOON:10,14,3,3,3,3,3,30,3,3
SCOREINIT:420,1310
SCOREDIFF:90
#START
10000001,
0000002222222211,
10003304,
0000000011111120, //4
#GOGOSTART
0022102010112030,
0022102010122030,
0022102010112030,
0022102011202011,
1120201121202011,
2220202222102070,
0000000080202011,
2211221122121122, //12
#GOGOEND
10201121,
0010202210102000,
1011202010200050,
000000000000000000000000000000000008000000000000,
10210121,
0010201210102010,
20210127,
0008, //20
10201121,
0010202210102000,
1011202010200050,
000000000000000000000000000000000008000000000000,
10210121,
0010201210102010,
20303303,
03030300, //28
1000201010112010,
1000201010222022,
1000201010112010,
10211404,
0011201020112010,
2011201022112020,
1022101022112012,
200200100200200200100000000000700000080000000000, //36
#GOGOSTART
1011201202102012,
0210201222102020,
1011201202102012,
2012207080708000,
1011201010212010,
1011201010212020,
1022102010002010,
2010201012121222, //44
1011201202102012,
0210201222102020,
1011201202102012,
2012207080708000,
1011201010212022,
1012221000300011,
2211221122111120,
#GOGOEND
0000000000112000, //52
7,
000000000000000000000000000000000000000008000000,
1020102210001020,
1022122010201000,
1121221210201012,
2212102020101120,
0011221010201022,
2210202211122030, //60
0022201020102011,
2011201220122011,
2222221111221121,
1122112212121211,
2,
00030303,
3000
#SCROLL 3
0006,
#BARLINEOFF
000000008000000000
#SCROLL 1
100100100000001000000010000000, //68
#BARLINEON
#GOGOSTART
1011201010212010,
1011201010212020,
1022102010002010,
2010201012121222,
1011201202102012,
0210201222102020,
1011201202102012,
2012207080708000, //76
1011201010212022,
1012221000300011,
2211221122111120,
#GOGOEND
0000000000112000,
#GOGOSTART
1020101110201012,
1020103000302022,
1010400040102011,
2011201120202111,
2020101110201012,
100000200000100000600000000000000000000008000000, //86
3000102211101030,
0020101122201040,
0020102211201040,
0022102212121030,
0020102211101030,
0020101122201040,
00333344,
#GOGOEND
0,
0, //95
#END

COURSE:Oni
LEVEL:6
BALLOON:10,10
SCOREINIT:540,2150
SCOREDIFF:138
#START
10000001,
0,
10003304,
00000001, //4
#GOGOSTART
0020201110102010,
0020201110202010,
0020201110102010,
0020201010202011,
1020201110202011,
1020202220102070,
00008225,
000000000000000000000000000000000008000000000000, //12
#GOGOEND
10201121,
01201120,
11201205,
000000000000000000000000000000000008000000000000,
10210121,
00211120,
20210007,
0008, //20
10201121,
01201120,
11201205,
000000000000000000000000000000000008000000000000,
10210121,
00221122,
10303303,
03030300, //28
10211020,
10211020,
10211020,
10211404,
0010201020100022,
22112211,
20211223,
0030003000222000, //36
#GOGOSTART
1011202000102010,
01210122,
1011102000102030,
03040400,
0022201000222010,
0011101000111010,
10121012,
3434, //44
1011202000102010,
01210122,
1011102000102030,
03040400,
0022201000222010,
11012105,
000000000000000000000000000008000000000000300000,
#GOGOEND
0000000000112000, //52
6,
000000000000000000000000000000000008000000000000,
10101012,
10101012,
1110111010001000,
1110111010001000,
1011111010001000,
1011111010002020, //60
00021122,
3344,
6,
000000000000000000000000000000000008000000100100,
2,
00030303,
3000
#SCROLL 2
0006,
#BARLINEOFF
000000000000000000000000000008000000000000000000, //68
#BARLINEON
#SCROLL 1
#GOGOSTART
0022201000222010,
0011101000111010,
10121012,
3434,
1011202000102010,
01210122,
1011101020002030,
03040400, //76
0022201000222010,
11012105,
000000000000000000000000000008000000000000300000,
#GOGOEND
0000000000112000,
#GOGOSTART
10101101,
01030330,
00404402,
02020220,
20101101,
000000100000000000600000000000000000000000000008, //86
0000101110100030,
0000222020200040,
0000101120200040,
00202203,
0000101110100030,
0000222020200040,
00333344,
#GOGOEND
0,
0, //95
#END

COURSE:Hard
LEVEL:5
BALLOON:3,3,3,3,14
SCOREINIT:530,2840
SCOREDIFF:130
#START
10000001,
0,
10003304,
00000001, //4
#GOGOSTART
02201122,
02201122,
02201221,
01221227,
00870087,
00870085,
0,
000000000000000000000000000000000008000000000000, //12
#GOGOEND
10201121,
0212,
10201205,
000000000000000000000000000000000008000000000000,
10210221,
00211120,
20210000,
0, //20
10201121,
0212,
10201205,
000000000000000000000000000000000008000000000000,
10210221,
00221122,
1600,
000000000000000000000000000008000000000000000000, //28
10011020,
10011020,
10011020,
10011404,
01112201,
01201112,
20011223,
0030003000222000, //36
#GOGOSTART
11210121,
01210122,
12210123,
03040400,
02210221,
02210221,
10121012,
3434, //44
11210121,
01210122,
12210123,
03040400,
02210221,
11012105,
000000000000000000000000000008000000000000300000,
#GOGOEND
0000000000222000, //52
9000000000000009,
0800,
0404,
0404,
0303,
0303,
0404,
0404, //60
0303,
3344,
6,
000000000000000000000000000000000008000000000000,
3,
00030303,
3000
#SCROLL 2
0006,
#BARLINEOFF
000000000000000000000000000008000000000000000000, //68
#BARLINEON
#SCROLL 1
#GOGOSTART
02210221,
02210221,
10121012,
3434,
11210121,
01210122,
12212023,
03040400, //76
02210221,
11012105,
000000000000000000000000000008000000000000300000,
#GOGOEND
0000000000222000,
#GOGOSTART
10101101,
01030330,
00404402,
02020220,
20101101,
000000100000000000600000000000000000000000000008, //86
00111103,
00222204,
00101103,
00202204,
00101103,
00222204,
00333344,
#GOGOEND
0,
0, //95
#END

COURSE:Normal
LEVEL:4
BALLOON:6,3,3,3,3,5,5,10,5,5,6
SCOREINIT:730,5450
SCOREDIFF:190
#START
10000001,
0,
900000000000000000000000000000000009000000000008,
0,//4
#GOGOSTART
0303,
0303,
0303,
00300007,
00870087,
00870085,
0,
000000000000000000000000000000000008000000000000, //12
#GOGOEND
0101,
0111,
20202005,
000000000000000000000000000000000008000000000000,
0101,
0222,
1100,
0, //20
0101,
0111,
20202005,
000000000000000000000000000000000008000000000000,
0101,
0222,
1600,
000000000000000000000000000008000000000000000000, //28
1002,
1002,
1002,
1,
0303,
0303,
00300033,
03030000, //36
#GOGOSTART
10101011,
10101011,
10101011,
00030300,
00110011,
00220022,
70000807,
08, //44
10101011,
10101011,
10101011,
00030300,
00110011,
5,
000000000000000000000000000008000000000000300000,
#GOGOEND
0, //52
9000000000000009,
0800,
0404,
0404,
0303,
0303,
0404,
0404, //60
0303,
3333,
6,
000000000000000000000000000000000008000000000000,
3,
0,
3000
#SCROLL 2
0006,
#BARLINEOFF
000000000000000000000000000008000000000000000000, //68
#BARLINEON
#SCROLL 1
#GOGOSTART
00110011,
00220022,
70000807,
08,
10101011,
10101011,
10101011,
00030300, //76
00110011,
5,
000000000000000000000000000008000000000000300000,
#GOGOEND
0,
#GOGOSTART
0111,
0101,
0222,
0202,
5,
000000000000000000000000000000000000000000000008, //86
00101100,
00202200,
00101101,
00202200,
00101100,
00202200,
0000900000000900,
#GOGOEND
8,
0, //95
#END

COURSE:Easy
LEVEL:3
BALLOON:3,2,2,2,2,4,4,10,4,4,6
SCOREINIT:650,8040
SCOREDIFF:150
#START
10000001,
0,
900000000000000000000000000000000009000000000008,
0,//4
#GOGOSTART
0303,
0303,
0303,
00300007,
00870087,
00870085,
0,
000000000000000000000000000000000008000000000000, //12
#GOGOEND
0101,
0111,
00101005,
000000000000000000000000000000000008000000000000,
0101,
0101,
0101,
0, //20
0101,
0111,
00101005,
000000000000000000000000000000000008000000000000,
0101,
0101,
0600,
000000000000000000000000000008000000000000000000, //28
1002,
1002,
1002,
1,
0303,
0303,
0306,
000000000000000000000008000000000000000000000000, //36
#GOGOSTART
1110,
1110,
500000000000000000000000000000000000000000000008,
00030300,
0101,
0101,
70000807,
08, //44
1110,
1110,
500000000000000000000000000000000000000000000008,
00030300,
0101,
5,
000000000000000000000008000000000000000000300000,
#GOGOEND
0, //52
9000000000000009,
0800,
0404,
0404,
0303,
0303,
0404,
0404, //60
0303,
6,
0,
000000000000000000000000000008000000000000000000,
3,
0,
3000
#SCROLL 2
0006,
#BARLINEOFF
000000000000000000000000000008000000000000000000, //68
#BARLINEON
#SCROLL 1
#GOGOSTART
0101,
0101,
70000807,
08,
1110,
1110,
500000000000000000000000000000000000000000000008,
00030300, //76
0101,
5,
000000000000000000000008000000000000000000300000,
#GOGOEND
0,
#GOGOSTART
0111,
0101,
0222,
0202,
5,
000000000000000000000000000000000000000008000000, //86
0110,
0220,
00101001,
0220,
0110,
0220,
0000900000000900,
#GOGOEND
8,
0, //95
#END
