//TJADB Project
TITLE:Masakari Blade
TITLEJA:マサカリブレイド
SUBTITLE:--REDALiCE/SOUND VOLTEX
SUBTITLEJA:REDALiCE 「SOUND VOLTEX」より
BPM:194
WAVE:Masakari Blade.ogg
OFFSET:-1.724
DEMOSTART:45.018

COURSE:Oni
LEVEL:9
SCOREINIT:460
SCOREDIFF:120
#START
1020201000201222,
1020120210210120,
1020201000201222,
1020120210122000,//4
#GOGOSTART
1020102010201222,
1020102010210120,
1020102010201222,
500000000000000000000000000000000000000008000000,//8
#GOGOEND
2000200020112000,
10010000,
1000001022221212,
10010000,
10010040,
10010000,
10010000,
10010000,
10012040,
10102122,
12112101,
12112122,
1020101021104000,
10102122,
12020202,
1021201020102020,
1020201021104000,
1022102210202012,
2010220210202202,
1022102210202012,
2010220210202202,
100000000000100000000000500000000000000000000008,
0020002000200012,
1020220210202202,
1020220210202202,
10202021,
100000200100200000100000102020100000200000000000,//35
#GOGOSTART
1022102210021010,
0210102210201021,
1022102210021010,
000200100000100000200200100000200000100000202020,
1022102110221021,
1020002000200021,
2010002210201020,//42
#GOGOEND
3000300040122000,//43
#GOGOSTART
1022102210021010,
0210102210201021,
1022102210021010,
000200100000100000200200100000200000100000202020,
1022102110221021,
100200000122100200000200,
30303043,
0040403000112000,//51
#GOGOEND
10010200,
,
00000200,
0004,
10102122,
12112101,
12112122,
1020101021104000,
10102122,
12020202,
1021201020102020,
1020201021104000,
1022102210202012,
2010220210202202,
1022102210202012,
2010220210202202,
100000000000100000000000500000000000000000000008,
0020002000200012,
1020220210202202,
1020220210202202,
1020210210202102,
1020210210205000,
000000000000000000000000000000000000000008000000,
100000200100200000100000102020100000200000000000,//75
#GOGOSTART
1022102210021010,
0210102210201021,
1022102210021010,
000200100000100000200200100000200000100000202020,
1022102110221021,
1020002000200021,
2010002210201020,//82
#GOGOEND
3000300040122000,//83
#GOGOSTART
2021102210021010,
0210102210202210,
0210102210021010,
000200100000100000200100200200100000000000202020,
1022102110221021,
100200000122100200000200,
30303043,
0040403000112000,//91
#GOGOEND
#END

COURSE:Hard
LEVEL:6
BALLOON:8,10
SCOREINIT:460
SCOREDIFF:140
#START
1111,
10101212,
1111,
1000100010222000,//4
#GOGOSTART
10101212,
1000100010222000,
10101212,
7008,//8
#GOGOEND
2220,
10010020,
10010000,
10010020,
10010000,
10010020,
10010020,
10010020,
10012020,
1120,
10012000,
1120,
12112000,
1120,
10012000,
1120,
12112000,
1000100010002220,
01201020,
1000100010002220,
01210020,
1250,
000000000000000000000008000000000000000000000000,
1000100010002220,
01210020,
3,
,//35
#GOGOSTART
1000100010222010,
0022201010200010,
0000100010222010,
0022201010200010,
10021202,
1020002000200022,
1010002210201020,//42
#GOGOEND
3340,//43
#GOGOSTART
1000100010222010,
0022201010200010,
0000100010222010,
0022201010200010,
10021202,
12020202,
30303043,
04430040,//51
#GOGOEND
00000200,
,
00000200,
,
1120,
10012000,
1120,
12112000,
1120,
10012000,
1120,
12112000,
1000100010002220,
01201020,
1000100010002220,
01210020,
1250,
000000000000000000000008000000000000000000000000,
1000100010002220,
01210020,
3232,
3237,
0008,
2224,//75
#GOGOSTART
1000100010222010,
0022201010200010,
0000100010222010,
0022201010200010,
10021202,
1020002000200022,
1010002210201020,//82
#GOGOEND
3340,//83
#GOGOSTART
1000100010222010,
0022201010200010,
0000100010222010,
0022201010200010,
10021202,
12020202,
30303043,
04430040,//91
#GOGOEND
,
,
,
,
#END

COURSE:Normal
LEVEL:5
BALLOON:6,8
#START
11,
1012,
11,
1012,//4
#GOGOSTART
10101012,
10101012,
10101012,
7008,//8
#GOGOEND
2220,
10010000,
10010000,
10010000,
10010000,
10010000,
10010000,
10010000,
10010020,
1120,
10012000,
1120,
11002000,
1120,
10012000,
1120,
11002000,
10101011,
0212,
10101011,
02220020,
1150,
000000000000000000000008000000000000000000000000,
10101011,
02220020,
3,
,//35
#GOGOSTART
10101012,
10121000,
10101012,
10121000,
20022202,
22020202,
11021100,//42
#GOGOEND
4440,//43
#GOGOSTART
10101012,
10121000,
10101012,
10121000,
20022202,
22020200,
3336,
000000000000000008000000000000000000400000000000,//51
#GOGOEND
,
,
,
,
1120,
10012000,
1120,
10012000,
1120,
10012000,
1120,
10012000,
10101011,
0212,
10101011,
02220020,
1150,
000000000000000000000008000000000000000000000000,
10101011,
02220020,
3232,
3237,
0008,
2220,//75
#GOGOSTART
10101012,
10121000,
10101012,
10121000,
20022202,
22020202,
11021100,//82
#GOGOEND
4440,//83
#GOGOSTART
10101012,
10121001,
00101012,
10121000,
20022202,
22020200,
3336,
000000000000000008000000000000000000400000000000,//91
#GOGOEND
,
,
,
,
#END

COURSE:Easy
LEVEL:4
BALLOON:5,6
#START
11,
1,
11,
1,//4
#GOGOSTART
1110,
11,
1110,
7008,//8
#GOGOEND
2220,
10010000,
10010000,
10010000,
10010000,
10010000,
10010000,
10010000,
500000000000000000000000000008000000000000000000,
11,
02,
11,
02,
11,
02,
11,
02,
1110,
22,
1110,
22,
1150,
000000000000000000000008000000000000000000000000,
1110,
22,
3,
,//35
#GOGOSTART
1110,
11,
1110,
11,
22,
2,
11,//42
#GOGOEND
4440,//43
#GOGOSTART
1110,
11,
1110,
11,
22,
2,
4460,
000000000000000008000000000000000000400000000000,//51
#GOGOEND
,
,
,
,
11,
02,
11,
02,
11,
02,
11,
02,
1110,
22,
1110,
22,
1150,
000000000000000000000008000000000000000000000000,
1110,
22,
33,
3037,
0008,
2220,//75
#GOGOSTART
1110,
11,
1110,
11,
22,
2,
11,//82
#GOGOEND
4440,//83
#GOGOSTART
1110,
10001001,
0110,
11,
22,
2,
3360,
000000000000000008000000000000000000400000000000,//91
#GOGOEND
,
,
,
,
#END
