//TJADB Project
TITLE:Chain Chronicle Total War Medley
TITLEJA:チェインクロニクル 総力戦メドレー
SUBTITLE:--Takahiro Kai/Chain Chronicle
SUBTITLEJA:
BPM:120
WAVE:Chain Chronicle Total War Medley.ogg
OFFSET:-2.201
DEMOSTART:43.982 //shinuchi:
8860/6420/3520/2130/1530

COURSE:Edit
LEVEL:9
BALLOON:9,20
SCOREINIT:560,1570
SCOREDIFF:138
#START
101111202222,
101111202111,
200221202112,
200211202120,
200222200221,
200112202112,
200221102112,
200211202120,
200222200221,
202022102021, //10
200000200011200020102010,
100212200111,
200000200011200020102010,
100212200211,
200000200011200020102010,
100211200211,
200121100122,
100222100000, //18
#BPMCHANGE 159
3000002000112210,
1122202111202210,
2012102012102012,
1020121011112022,
1011201111102000,
1011200011120120,
1011201111102000,
1011201021120120, //26
1011201111202110,
1011201112101220,
1210201210201210,
2012102011112022,
1011201101102010,
1011201101102010,
2011201101102010,
1101201110102000, //34
1011201101102010,
1011201101102010,
2011201101102010,
1022102110102111,
2001201120102020,
1001201120102000,
1001201120102010,
2111102111102110, //42
2011201101102010,
2011201101102010,
2011201101102010,
1101201110102110,
1111201111202111,
2021112021121120,
1111201111202111,
2021112022121120, //50
#GOGOSTART
1021012010220020,
1022022110210122,
1021012210210122,
1021021110112000,
3004004030040000,
3021021010210122,
1021012210210122,
1021021110112000, //58
#GOGOEND
5,
000000000000000008000000200200100000100000200000,
500000000000000000000000000000000000000008000000,
700000000000000000000000000008000000200200100000,
1000002000112210,
1122202111202210,
2012102012102012,
1020121022110000, //66
#MEASURE 3/4
00
#BPMCHANGE 136
0,
#MEASURE 4/4
2102020102102207,
#MEASURE 5/4
00008,
#MEASURE 4/4
0,
#BARLINEOFF
0,
0,
0,
0, //74
#END

COURSE:Oni
LEVEL:7
BALLOON:10,10,15,15,16,15,15
SCOREINIT:750,2290
SCOREDIFF:180
#START
100111200222,
100111200222,
100111100211,
200022101020,
500000000000000000000008000000000000100020002000,
500000000000000000000008000000000000100020002000,
100111100221,
200022101020,
500000000000000000000008000000000000200010001000,
500000000000000000000008000000000000200020002000, //10
100001201020,
500000000008000000002000200000000000100020002000,
100001201020,
500000000008000000002000200000000000100020002000,
100001201020,
500000000008000000002000100000000000200020001000,
700000800122,
78, //18
#BPMCHANGE 159
30070000,
0000000000802210,
2011102011102011,
1020111022102022,
10210120,
1011200022102010,
20150000,
000000000000000008000000200000100200000100200000, //26
1001202000112000,
1001202000112020,
1120207000000000,
0000000000802210,
1110201000102000,
1011200011102210,
1110205000000000,
000000000000000008000000100100100000200000000000, //34
1001201000102020,
1001201000112000,
500000000000000000000000000000000000000000000008,
0022101011202220,
1001201000201120,
1001202000102220,
1001201000201120,
1110201110201120, //42
1001202000102210,
1001201000201120,
1001202000201120,
1001201000201220,
1022201022201022,
2010222011102022,
1022201022201022,
2010222010221120, //50
#GOGOSTART
1021002010220000,
1022002010210011,
2021002210210021,
1021002010112000,
3004004030040000,
3021002010210011,
2021002210210021,
1021002010221000, //58
#GOGOEND
7,
000000000000000008000000100100100000200000200000,
500000000000000000000000000000000000000008000000,
3000000000002210,
30070000,
0000000000802210,
2011102011102011,
1020111022100000, //66
#MEASURE 3/4
00
#BPMCHANGE 136
0,
#MEASURE 4/4
1102020102102107,
#MEASURE 5/4
00008,
#MEASURE 4/4
0,
#BARLINEOFF
0,
0,
0,
0, //74
#END

COURSE:Hard
LEVEL:5
BALLOON:9,11,11,12,11,11,10
SCOREINIT:910,4310
SCOREDIFF:258 //iOS chart drumroll lengths are different from AC chart. //iOS
Hard #26: 000000000000000008000000100000000200000000200000, //iOS
Hard #30: 000000000000000000000000000000000000000008000000, //iOS
Hard #34: 000000000000000008000000100100100000200000000000,
#START
33,
33,
3110,
100111,
500000000000000000000008000000000000100000000000,
500000000000000000000008000000000000100000000000,
1120,
100111,
500000000000000000000008000000000000100000000000,
500000000000000000000008000000000000000000000000, //10
100111,
100002200000,
100111,
100002200000,
100111,
100002100000,
500000000000000000000000000000000008000000000000,
7008, //18
#BPMCHANGE 159
30070000,
000000000000000000000000000000000008000000000000,
30430430,
4030004030002220,
10210120,
10201220,
10250000,
000000000008000000000000100000000200000000200000, //26
1001002000102000,
1002002000102000,
10250000,
000000000000000000000000000008000000000000000000,
10210120,
1000200011102020,
10250000,
000008000000000000000000100100100000200000000000, //34
10210122,
1000201000111000,
7,
000000000000000008000000200200200000200000000000,
10012000,
10210120,
10012000,
10210210, //42
10210122,
10210120,
10210122,
10210120,
6,
000000000000000000000000000000000008000000000000,
7,
08, //50
#GOGOSTART
1002002010020000,
1002002010020011,
1002002010020020,
1002002010111000,
3004004030040000,
3004004030210000,
1002002010020020,
1002002010111000, //58
#GOGOEND
7,
000000000000000008000000100000100000200000200000,
500000000000000000000000000000000000000008000000,
3,
30070000,
000000000000000000000000000000000008000000000000,
30430430,
43043000, //66
#MEASURE 3/4
00
#BPMCHANGE 136
0,
#MEASURE 4/4
1101010101102207,
#MEASURE 5/4
00008,
#MEASURE 4/4
0,
#BARLINEOFF
0,
0,
0,
0, //74
#END

COURSE:Normal
LEVEL:4
BALLOON:8,8,8,10,7,8,11,11,10,8
SCOREINIT:1240,7980
SCOREDIFF:435
#START
7008,
7008,
1110,
1011,
1005,
000000000000000000000000000008000000000000000000,
1120,
1011,
2005,
000000000000000000000000000008000000000000000000, //10
1011,
12,
1011,
12,
1011,
12,
500000000000000000000000000000000008000000000000,
7008, //18
#BPMCHANGE 159
30070000,
000000000000000000000000000000000008000000000000,
30030030,
03004000,
10010010,
0022,
10050000,
000000000008000000000000200000000000200000000000, //26
10110000,
10110000,
10070000,
00000800,
10110020,
0022,
10050000,
000000000008000000000000200000000000200000000000, //34
10110110,
10110200,
900000000000000000000000000000000009000000000008,
0,
12,
10010010,
12,
10010010, //42
12,
500000000000000000000000000000000008000000000000,
12,
10010010,
6,
000000000000000000000000000000000008000000000000,
7,
08, //50
#GOGOSTART
1000000010010000,
1000000010010000,
1001000010010000,
1001000020002000,
33,
3000000040040000,
1001000010010000,
1001000020002000, //58
#GOGOEND
7,
08,
500000000000000000000000000000000000000008000000,
3,
30070000,
000000000000000000000000000000000008000000000000,
30030030,
03003000, //66
#MEASURE 3/4
00
#BPMCHANGE 136
0,
#MEASURE 4/4
1000000101002007,
#MEASURE 5/4
00008,
#MEASURE 4/4
0,
#BARLINEOFF
0,
0,
0,
0, //74
#END

COURSE:Easy
LEVEL:3
BALLOON:5,5,5,6,5,7,7,6
SCOREINIT:1030,11770
SCOREDIFF:575
#START
7008,
7008,
3,
1011,
1,
500000000000000000000000000008000000000000000000,
3,
1011,
1,
500000000000000000000000000008000000000000000000, //10
3011,
12,
3011,
12,
3011,
12,
500000000000000000000000000000000008000000000000,
7008, //18
#BPMCHANGE 159
3,
0,
30030030,
03000000,
1,
0,
10050000,
000000000000000008000000000000000000000000000000, //26
1,
1,
20070000,
00000800,
10010010,
0,
10050000,
000000000000000008000000000000000000000000000000, //34
10010000,
10010000,
900000000000000000000000000000000009000000000008,
0,
1,
10010000,
1,
10020000, //42
1,
10010000,
1,
10020000,
6,
000000000000000000000000000000000008000000000000,
7,
08, //50
#GOGOSTART
11,
1110,
11,
1022,
33,
34,
11,
1022, //58
#GOGOEND
7,
08,
500000000000000000000000000008000000000000000000,
3,
3,
0,
30030030,
03003000, //66
#MEASURE 3/4
00
#BPMCHANGE 136
0,
#MEASURE 4/4
1000000100001007,
#MEASURE 5/4
00008,
#MEASURE 4/4
0,
#BARLINEOFF
0,
0,
0,
0, //74
#END
