//TJADB Project
TITLE:Shokou ~Dawn~
TITLEJA:曙光
SUBTITLE:--ZZAN Shin-way
SUBTITLEJA:~Dawn~
BPM:130
WAVE:Shokou Dawn.ogg
OFFSET:-2.411
DEMOSTART:17.180

COURSE:Edit
LEVEL:8
SCOREINIT:520
SCOREDIFF:110
#START
10200120,
10200220,
10200120,
10200220,
1002001010020020,
1002001010020020,
1022001010220020,
1022011020102202,
#GOGOSTART
1110210210112010,
1110210210122000,
1110210210112020,
1110210210112210,
1110210210112010,
1110210210122000,
1110210210112020,
1110210210112210,
#GOGOEND
1001201000102022,
1001201010202011,
1001201000102022,
1001201010202000,
1001201010012022,
1001201010202011,
1001201000102022,
1001201010202000,
1022201002102022,
1020201002122022,
1022201002102022,
1020201002122022,
1022201002102012,
1022201002112022,
1022201002102012,
1022201120102212,
1010201200102002,
1010221200102022,
1010201200102002,
1010201200102202,
1010201200102022,
1010221200102002,
1010201200102002,
1010201200102202,
1101201101202010,
1101201101202000,
1101201101202022,
1101201220102202,
1101201101222010,
1101201101222022,
500000000000000000000000000000000000000008000000,
4004004030030030,
#GOGOSTART
1110210210112010,
1110210212102000,
1110210210112020,
1110210212112010,
1110210210212010,
1110210212102000,
1110210210212020,
1110210212112010,
1110211211212010,
1110211212112000,
1110211211212010,
1110211212112210,
1110211211212010,
1110211212112000,
1110211211212010,
1110211212112210,
#GOGOEND
5,
,
000000000000000000000008000000000000000000000000,
#END

COURSE:Oni
LEVEL:7
SCOREINIT:500
SCOREDIFF:130
#START
11,
1111,
12,
500000000008000000000000000000000000000000000000,
11,
1111,
2022202020222020,
2022202022202000,
#GOGOSTART
1120102010202120,
1120222022102000,
2210201110102020,
1120221011202210,
1120102010202120,
1120212020112000,
2210201110102020,
1120222012121010,
#GOGOEND
1011201010202000,
12021120,
1011201010202000,
12021120,
1011201010202000,
12221020,
1011202010112020,
3333,
1111102010102020,
1022202000000000,
2222202010102020,
1022202020000000,
3011100010101000,
3011100010101000,
4022202010222020,
100000200200200000200000500000000008000000000000,
1020102010222011,
2010112000102011,
2010112010201120,
1022202020002000,
1020102010222022,
1010222000102011,
2022202010201120,
1022202020000000,
2220202010111000,
2220202010111000,
2211221122112020,
100000200000100000500000000000000008000000000000,
1212,
2022202020101010,
500000000000000000000000000000000000000000000008,
,
#GOGOSTART
1120102010202120,
1120222022101000,
2210201110102020,
1120221011202210,
1120102010202120,
1120212020112000,
2210201110102020,
1120222012112210,
1120112011202120,
1120222022101000,
2210201110102220,
1120221011202210,
1120112011202120,
1120212020112000,
2210201110102220,
1120222012121010,
#GOGOEND
5,
,
000000000000000000000008000000000000000000000000,
#END

COURSE:Hard
LEVEL:7
BALLOON:24
SCOREINIT:590
SCOREDIFF:160
#START
11,
1111,
12,
500000000008000000000000000000000000000000000000,
11,
1111,
1011100010111000,
1011101011101000,
#GOGOSTART
1110101010101000,
2220202020202000,
2220202000202020,
1110202011102000,
1110101010101000,
2220202020202000,
2220202000202020,
100100100000200200200000500000000000000008000000,//16
#GOGOEND
10201120,
12021120,
10201120,
12021120,
10201120,
12221020,
10201122,
3333,
2022200010111000,
100000200200200000500000000000000008000000000000,
2022200010111000,
1022201020000000,
3011100010101000,
3011100010101000,
4022200010222000,
100000200200200000100000500000000008000000000000,
1020102010222000,
1010222000102000,
1010222010100020,
2022202020000000,
1020102010222000,
1010222000102000,
1010222010100020,
2022202020000000,
2220202010101000,
2220202010101000,
21212122,
100000200000100000500000000000000008000000000000,
1212,
2022202020101010,
500000000000000000000000000000000000000000000008,
,//48
#GOGOSTART
1110101010101000,
2220202020202000,
2220202000202020,
1110202011102000,
1110101010101000,
2220202020202000,
2220202000202020,
100100100000200200200000500008000000500008000000,
1110101010101110,
2220202020222000,
2220202000202020,
1111100022222000,
1110101010101110,
2220202020222000,
2220202000202020,
1110222011111010,//64
#GOGOEND
9,
,
98,
0,
0,
#END

COURSE:Normal
LEVEL:5
BALLOON:15
#START
11,
1111,
12,
500000000008000000000000000000000000000000000000,
11,
1111,
11,
500000000000000000000000000008000000000000000000,//8
#GOGOSTART
11102020,
11102020,
11010110,
11102220,
11102020,
11102020,
11010110,
100000100000100000000000500000000008000000000000,//16
#GOGOEND
10101110,
11011000,
10101110,
11011000,
10101110,
22022000,
11011020,
3333,
11011020,
11011000,
22022010,
22022000,
33304040,
33304040,
44403030,
600000000000000000000000000000000008000000000000,
20201110,
10110110,
20202220,
2220,
20201110,
10110110,
20202220,
2220,
20201110,
20201110,
2121,
20150080,
1212,
11011010,
500000000000000000000000000000000000000000000008,
,//48
#GOGOSTART
11102020,
11102020,
11010110,
11102220,
11102020,
11102020,
11010110,
100000100000100000000000500008000000500008000000,
11102220,
11102220,
11010220,
11102220,
11102220,
11102220,
11010220,
11102220,//64
#GOGOEND
9,
,
98,
,
,
#END

COURSE:Easy
LEVEL:4
BALLOON:4,10
#START
11,
1110,
12,
500000000008000000000000000000000000000000000000,
11,
1110,
11,
500000000000000000000000000008000000000000000000,//8
#GOGOSTART
1110,
1110,
10110000,
2220,
1110,
1110,
10110000,
2220,//16
#GOGOEND
1011,
12,
1011,
12,
1011,
22,
11,
3333,
10011000,
10011000,
20011000,
20011000,
3344,
3344,
4444,
600000000000000000000000000008000000000000000000,
1212,
10110000,
1212,
1120,
1212,
10110000,
1212,
1120,
20201100,
20201100,
2121,
200000000000500000000000000008000000000000000000,
1212,
1120,
7,
8,//48
#GOGOSTART
1112,
1110,
10110000,
2220,
1112,
1110,
10110000,
500000000000000000000000000008000000000000000000,
1112,
1112,
10110000,
1212,
1112,
1112,
10110000,
1212,//64
#GOGOEND
9,
,
98,
,
,
#END
