//TJADB Project
TITLE:Alien Alien
TITLEJA:エイリアンエイリアン
SUBTITLE:--NayutalieN feat. Hatsune Miku
SUBTITLEJA:ナユタン星人 feat.初音ミク
BPM:152
WAVE:Alien Alien.ogg
OFFSET:-3.273
DEMOSTART:53.801 //shinuchi:
4220/2870/1810/1250

COURSE:Oni
LEVEL:9
BALLOON:3,2
SCOREINIT:430,1330
SCOREDIFF:103
#START
#GOGOSTART
1020101110201011,
1020101120201120,
1020101110201011,
1020101110221110,
1020101110201011,
1020101120201120,
1020101110201011,
1020101110221210, //8
#GOGOEND
1001202010012020,
1021202010221110,
1001202010012020,
1021202010221210,
1001202010012020,
1021202010221110,
1021202010212020,
0012101012101222, //16
1022102010221020,
1022102010221020,
1022102010221020,
1022102010212021,
2001202012112020,
100000100100200000200000100000202020100000100000,
2001202012112020,
100000100100200000200000100000202020100000100000, //24
2001202012212020,
1011202010212020,
1021201210212020,
0011202012202120,
1220122012201220,
1220122012201220,
1212121212121212,
100100200200100100200200100000700000080000000000, //32
#GOGOSTART
3002102000122020,
100000202020100000200000100000200200200000200000,
100000200100200000200000100000202020100000200000,
1021202010404012,
1010121010212020,
1002101020222020,
1021202010212020,
#GOGOEND
03403400, //40
#GOGOSTART
3002102000122020,
100000202020100000200000100000200200200000200000,
100000100200100000200000100000202020100000200000,
1021202010404012,
1020121020212000,
3000300040000012,
1020121020221220,
03403403, //48
#GOGOEND
6,
000000000000000000000000000000000000000008000000,
1022102010221020,
1022102010221211,
2021200012102000,
1202120210202000,
2021200012102000,
1202120210202120,
1021200012102000,
1202120211202000,
1010202210102000,
2011202110201222,
000000200100200000000000200100100200700008000000, //61
#GOGOSTART
3002102000122020,
100000202020100000200000100000200200200000200000,
100000200100200000200000100000202020100000200000,
1021202010404012,
1010121010212020,
1002101020222020,
1021202010212020,
#GOGOEND
03304400, //69
#SCROLL 1.15
#GOGOSTART
3002102000122020,
100000202020100000200000100000200200200000200000,
100000200100200000200000100000202020100000200000,
1021202010404021,
200000200000200100200000200000202020100000200000,
3000400040000021,
2020121012221220,
03403403, //77
#GOGOEND
6,
000000000000000000000000000000000000000008000000,
#SCROLL 1
1022102010221020,
1020202012221210,
0,
#BARLINEOFF
0,
0, //84
#END

COURSE:Hard
LEVEL:6
BALLOON:7
SCOREINIT:440,2040
SCOREDIFF:115
#START
#GOGOSTART
11201120,
11201220,
11201120,
1010200010222000,
11201120,
11201220,
11201120,
1010200010222000, //8
#GOGOEND
1001100010102000,
12101120,
1001100010102000,
12101220,
1001100010102000,
12101120,
12102120,
01221122, //16
11201120,
11201120,
11201120,
1010200010222020,
1002200010201000,
1010200011102020,
1002200010201000,
1010200011102020, //24
1002200010201000,
1010200011102020,
1011100010111000,
01121212,
3333,
3333,
34343434,
78, //32
#GOGOSTART
30220122,
1022202010000020,
11201210,
1022202010000020,
11202120,
1022201020000020,
1010200010222020,
#GOGOEND
03403400, //40
#GOGOSTART
3000202000111020,
1022202010000020,
11201210,
1022202010000020,
11202120,
30304002,
1010200010222020,
03403403, //48
#GOGOEND
6,
000000000000000000000000000000000008000000000000,
11201120,
1010200010222220,
11201220,
1110111010102000,
11201220,
1110111020202000, //56
11201220,
1101101020202000,
11221120,
1010201110000000,
0, //61
#GOGOSTART
3000102000111020,
1022202010000020,
12102120,
1022202010000020,
12102120,
1022201020000020,
1020100010222020,
#GOGOEND
03404400, //69
#SCROLL 1.1
#GOGOSTART
3000102000111020,
1022202010000020,
12212210,
1022202010000020,
12102120,
30304002,
1010202010222020,
03403403, //77
#GOGOEND
6,
000000000000000000000000000000000008000000000000,
#SCROLL 1
11201120,
34443434,
0,
#BARLINEOFF
0,
0, //84
#END

COURSE:Normal
LEVEL:5
BALLOON:6
SCOREINIT:530,3310
SCOREDIFF:143
#START
#GOGOSTART
1122,
1120,
1122,
10101110,
1122,
1120,
1122,
10101110, //8
#GOGOEND
11,
10201110,
11,
10102220,
11,
10201110,
1122,
07000080, //16
1122,
1122,
1122,
10102220,
1120,
11101110,
1120,
11102220, //24
1120,
11101110,
1122,
01102220,
3344,
3344,
6,
000000000000000000000008000000000000000000000000, //32
#GOGOSTART
30220000,
1120,
10201110,
10222000,
10201110,
10222000,
1212,
#GOGOEND
03304400, //40
#GOGOSTART
30220000,
1120,
10201110,
10222000,
10102220,
3330,
1212,
03304400, //48
#GOGOEND
6,
000000000000000000000000000000000008000000000000,
1120,
10102220,
1122,
10102220,
1122,
10102220, //56
1122,
10102220,
11101120,
500000000000000000000000000008000000000000000000,
0, //61
#GOGOSTART
30220000,
10112000,
10102220,
10112000,
10102220,
10112000,
1212,
#GOGOEND
03304400, //69
#GOGOSTART
30220000,
10112000,
10102220,
10112000,
11102220,
3340,
10102222,
03304400, //77
#GOGOEND
6,
000000000000000000000000000000000008000000000000,
1122,
10103344,
0,
#BARLINEOFF
0,
0, //84
#END

COURSE:Easy
LEVEL:3
BALLOON:4,4,4,4,4
SCOREINIT:460,5040
SCOREDIFF:120
#START
#GOGOSTART
31,
1011,
11,
1022,
11,
1011,
11,
1022, //8
#GOGOEND
31,
1110,
11,
2220,
11,
1110,
1111,
07000080, //16
31,
1011,
11,
1022,
31,
1111,
11,
2222, //24
11,
1111,
2222,
0,
3333,
3333,
6,
000000000000000000000008000000000000000000000000, //32
#GOGOSTART
3300,
1110,
1110,
2220,
1110,
2220,
1111,
#GOGOEND
07000800, //40
#GOGOSTART
3300,
1110,
1110,
2220,
1110,
3330,
1122,
07000800, //48
#GOGOEND
6,
000000000000000000000000000008000000000000000000,
11,
1022,
12,
1122,
12,
1122, //56
12,
1122,
12,
500000000000000000000000000008000000000000000000,
0, //61
#GOGOSTART
3300,
1120,
1120,
2220,
1122,
1110,
1122,
#GOGOEND
07000800, //69
#GOGOSTART
3300,
1120,
1122,
1120,
1122,
3330,
1122,
07000800, //77
#GOGOEND
6,
000000000000000000000000000008000000000000000000,
1011,
1033,
0,
#BARLINEOFF
0,
0, //84
#END
