//TJADB Project
TITLE:Hikari no Kanata e
TITLEJA:ヒカリノカナタヘ
SUBTITLE:--Yoshihito Yano feat. Takayoshi Tanimoto
BPM:146
WAVE:Hikari no Kanata e.ogg
OFFSET:-1.977
DEMOSTART:15.127

COURSE:Oni
LEVEL:9
SCOREINIT:390
SCOREDIFF:100
#START
1202120212021020,
1202120212021110,
1202120212021020,
1202120212021110,
1202120212021020,
1202120212021110,
1202120212021020,
1202120212021011,
1022102012021020,
1022102011010000,
1022102012021020,
1022102022020000,
1011101021011020,
1011201021012020,
1011101020222020,
1110111011111022,
1011201021012010,
1011201021012010,
1011201021012010,
1110222011102022,
1022102012021020,
1022102011010000,
1022102012021020,
1022102022020000,
2011102012021020,
2011102012021010,
1011101020222020,
1111222021021020,
1112102102102022,
1112101202102022,
1112102102102022,
1112101202102022,
1112102102102022,
1112101202102022,
1112102102102022,
1221221221221011,
10110110,
1010001010001111,
10110110,
1010001010001111,
12,
22,
22,
2002002020020020,
#MEASURE 3/4
200200202000,
#MEASURE 4/4
2002002020020020,
#MEASURE 3/4
200200202000,
#MEASURE 4/4
2,
0,
#MEASURE 2/4
0,
#MEASURE 4/4
3000102011011020,
#MEASURE 3/4
112210201111,
#MEASURE 4/4
1000102011011020,
#MEASURE 3/4
102210201111,
#MEASURE 4/4
1000102011011020,
#MEASURE 3/4
112210201111,
#MEASURE 4/4
1000102011011020,
#MEASURE 3/4
111122221000,
#MEASURE 4/4
1021021012210210,
#MEASURE 3/4
102102101222,
#MEASURE 4/4
1021021012210210,
#MEASURE 3/4
102102101222,
#MEASURE 4/4
1011011022120210,
#MEASURE 3/4
101101102222,
#MEASURE 4/4
1110111011101110,
1120112011201120,
1222122212221222,
212121221212,
#GOGOSTART
1111222210001221,
#MEASURE 3/4
001010212210,
122122121221,
221212212212,
122122121221,
221212212212,
122122121221,
#MEASURE 4/4
2212122122121110,
1221001010212210,
2212021011120210,
1122112211221122,
1222122212221222,
1212121212121212,
#MEASURE 2/4
10001111,
#MEASURE 4/4
#GOGOEND
2,
#END

COURSE:Hard
LEVEL:7
SCOREINIT:500
SCOREDIFF:133
#START
1110111011011000,
1110111011011000,
1110111011011000,
1110111010004000,
1110111011011000,
1110111011011000,
1110111011011000,
1110111010004000,
1110100011011000,
1110111010000000,
2220200022022000,
2220222020000000,
1011101010111000,
2022202020222000,
1011101020222020,
1110100011101000,
1110111011011000,
1110111011011000,
1110111011011000,
1110111010004000,
1110100011011000,
1110111010000000,
2220200022022000,
2220222020000000,
1110100011011020,
1110100022022020,
1110111010002000,
2220222022202000,
1001001001001000,
2002002002002000,
1001001001001000,
5008,
1001001001001000,
2002002002002000,
1001001001001000,
2002002002002000,
10110110,
11011011,
10110110,
11011011,
12,
22,
22,
#MEASURE 4/4
2002002020000000,
#MEASURE 3/4
200200202000,
#MEASURE 4/4
2002002020000000,
#MEASURE 3/4
200200202000,
#MEASURE 4/4
2,
0,
#MEASURE 2/4
0,
#MEASURE 4/4
10101012,
#MEASURE 3/4
101120,
#MEASURE 4/4
10201012,
#MEASURE 3/4
110,
#MEASURE 4/4
10201012,
#MEASURE 3/4
101110,
#MEASURE 4/4
20102012,
#MEASURE 3/4
122,
#MEASURE 4/4
1000111011011010,
#MEASURE 3/4
100011101000,
#MEASURE 4/4
2000222022022020,
#MEASURE 3/4
220,
#MEASURE 4/4
1000111011011020,
#MEASURE 3/4
100011101000,
#MEASURE 4/4
1110111011101110,
1120112011201120,
2220222022202220,
111111222222,
#GOGOSTART
1000111010001020,
#MEASURE 3/4
111010201110,
100022202000,
102011201020,
112010201110,
102011101020,
112010201120,
#MEASURE 4/4
1110222011102220,
1110222011102220,
1110111011101110,
1010201110102011,
11212121,
2011101010002022,
#MEASURE 2/4
20001111,
#MEASURE 4/4
#GOGOEND
1,
#END

COURSE:Normal
LEVEL:5
BALLOON:30,35,55
SCOREINIT:930
SCOREDIFF:270
#START
1111,
10111000,
1111,
10111000,
2222,
20222000,
2222,
20222000,
10111010,
1110,
20222020,
2220,
10011010,
20022020,
1122,
1122,
5,
08,
0,
0,
10111010,
1110,
20222020,
2220,
10011010,
20022020,
1111,
2222,
9,
0,
08,
0,
9,
0,
08,
0,
10010010,
0110,
10010010,
0110,
2,
2,
2,
20022000,
#MEASURE 3/4
200220,
#MEASURE 4/4
20022000,
#MEASURE 3/4
200220,
#MEASURE 4/4
2,
0,
#MEASURE 2/4
0,
#MEASURE 4/4
10101011,
#MEASURE 3/4
101110,
#MEASURE 4/4
11,
#MEASURE 3/4
110,
#MEASURE 4/4
10101011,
#MEASURE 3/4
101110,
#MEASURE 4/4
11,
#MEASURE 3/4
110,
#MEASURE 4/4
20002022,
#MEASURE 3/4
202220,
#MEASURE 4/4
22,
#MEASURE 3/4
220,
#MEASURE 4/4
1111,
#MEASURE 3/4
111,
#MEASURE 4/4
5,
00080010,
1112,
2230,
#GOGOSTART
0001,
#MEASURE 3/4
101110,
200020,
101011,
200020,
101011,
200020,
#MEASURE 4/4
10101110,
1212,
1212,
9,
0,
0,
#MEASURE 2/4
8,
#GOGOEND
#END

COURSE:Easy
LEVEL:5
BALLOON:25,30,50
SCOREINIT:650
SCOREDIFF:188
#START
1110,
1110,
1110,
1110,
2220,
2220,
2220,
2220,
1111,
2220,
1111,
2220,
10011010,
20022020,
1122,
1122,
5,
08,
0,
0,
1111,
1110,
2222,
2220,
1122,
1122,
1111,
2222,
9,
0,
08,
0,
9,
0,
08,
0,
10010010,
0110,
10010010,
0110,
2,
2,
2,
22,
#MEASURE 3/4
202,
#MEASURE 4/4
22,
#MEASURE 3/4
202,
#MEASURE 4/4
2,
0,
#MEASURE 2/4
0,
#MEASURE 4/4
1110,
#MEASURE 3/4
111,
#MEASURE 4/4
11,
#MEASURE 3/4
110,
#MEASURE 4/4
1010,
#MEASURE 3/4
111,
#MEASURE 4/4
11,
#MEASURE 3/4
110,
#MEASURE 4/4
2020,
#MEASURE 3/4
222,
#MEASURE 4/4
22,
#MEASURE 3/4
220,
#MEASURE 4/4
1111,
#MEASURE 3/4
111,
#MEASURE 4/4
5,
00080010,
1112,
2230,
#GOGOSTART
0002,
#MEASURE 3/4
111,
202,
111,
202,
111,
202,
#MEASURE 4/4
1111,
1212,
1212,
9,
0,
0,
#MEASURE 2/4
0,
#GOGOEND
#MEASURE 4/4
8,
#END
