//TJADB Project
TITLE:Hyakki Yakou
TITLEJA:百鬼夜行
SUBTITLE:--Kakumi Nishigomi
BPM:145
WAVE:Hyakki Yakou.ogg
OFFSET:-2.029
DEMOSTART:73.612

COURSE:Oni
LEVEL:9
BALLOON:15,15,3,3,3,3,4
SCOREINIT:450
SCOREDIFF:110
NOTESDESIGNER3:Etou & Fumen Reader & Takahashi
#START
#SCROLL 1.05
#MEASURE 5/4
500008000000000000000000000000000000000000000000000000000000,
#MEASURE 4/4
#SECTION
#BRANCHSTART r,1,2
#N
200200200200200000000000000000000000000000000000,
200200200200100100100100200200200200100100100100,
200200200200200000000000000000000000000000000000,
200200200200100100100100200200200200100100100100,
100100200100100000000000300000000000000000000000,
100100100100100000000000300000000000000000000000,
300000000000300000000000300000300000000000300000,
000000000000000000001010100000000000000000000000,
300000000000000000300000000000000000300000000000,
000000300000300000300000400000400000400000000000,
#GOGOSTART
100000100100100000200000100000100100100000200000,
100100100200100000200000100100100200100000200000,
100000100100100000200000100100100000200000100100,
100000200000200000100100100000200200200000200000,
700000800000100100100000700000800000100100100000,
100000100100100000200000100000100100100000200000,
100100100200100000200000100100100200100000200000,
100000200200200000200000200200200000200000000000,
100000100100100000200000100000100100100000200000,
100100100200100000200000100100100200100000200000,
100000100100100000200000100100100000200000100100,
100000200000200000100100100000200200200000000000,
300000000000000000100100100000000000100100100000,
000000100000100000100000100000100000100000100000,
100000200200200000200000200200200000200000200000,
000000200000200000200000200200200000200000000000,
#GOGOEND
100000100200000200100000100100000200100000200000,
100100000200100000100100100000100000100200000200,
100000100200000200100000100100000200100000200000,
100100000200100100100000100000100000100000000200,
100000100200000200100100100000200000100200200000,
100000100200000200100100100000100000100000200200,
100000200100000200100000100200000200100000100000,
100200000100200000200100000100200000100000000000,
100000100200000200100000100100200200100000200000,
100100000200100000100100100000100200100200000200,
100000100200000200100000100100200200100000200000,
100100000200100100100200100000100000100000000200,
100000100200000200100100100000200000100200200000,
100000100200000200100100100000100000100000200200,
100000200100000200100000100200000200100100100000,
100100100100100000300000000000000000000000000000,
100100100000100000200200200000100000200000200000,
100100100000100000200200200000100100100000200000,
100100100100100000200200200000100100100000200000,
100100100100100000200200200000100100100200100000,
300000003000000030000000300000003000000030000000,
100100100000200000100000100100100100100000000000,
100100100000200000100100100000200000100100100000,
300000300000300000300000200020002000200000000000,
100000001000000010000000100020001000000010000000,
100020001000200010000000100000001000200010002000,
100200100200100000100200100200100000000000000000,
100100000100100000100000000000100000000000000000,
200200100100100000200200100100200000200200100100,
100000200200100000200200100100200000100000200000,
100100200100100200100200200200100200100000000000,
300000000100100000100000000000300000300000000000,
#GOGOSTART
100000100100200000100000100000100100200000100000,
100100200200100000200000100100200200100000200000,
100000100100200100200000100100200100200000100100,
100000200000200000100100100000200200200000200000,
700000800000100100100000700000800000100100100000,
100000100100100000200000100000100100100000200000,
100100100200100000200000100100100200100000200000,
100000200200000200200000200200000200200000200000,
100000100100200000100000100000100100200000100000,
100100200200100000200000100100200200100000200000,
100000100100200100200000100100100000200000100100,
100000200000200000100100100000200200200000200000,
300000000000000000100100100000000000100100100000,
000000100000100200100000100200100000100200100000,
100000200200100000200200100000200200100200200200,
100000000100100000100000000000300000300000000000,
#E
100000000000000000000000200000200000000000100000,
100100100000100100100000200000200000100000100000,
100000000000000000000000200000200000000000100000,
100100100000100100100000200000200000100000100000,
100000000000000000100100200000200000000000100000,
100000000000000000100100200000200000000000000000,
300000000000300000000000300000300000000000300000,
000000000000000000001010100000000000000000000000,
300000000000000000300000000000000000300000000000,
000000300000300000300000400000400000400000000000,
#GOGOSTART
100000000100200000100000100200100100200000101010,
100000000100200000100000100200100200200000100000,
100100200000100100200000100100200000100100200200,
100000200200100000200200100000200200100000200200,
100000000100200000100000100200100100200000101010,
100000000100200000100000100200200100200200100000,
100100200000100100200000100100200000100100200200,
100000200200100000200200500000000000000008000000,
100000000100200000100000100200100100200000101010,
100000000100200000100000100200100200200000100000,
100100200000100100200000100100200000100100200200,
100000200200100000200000100200100100200000100000,
300000202020200000300000202020200000300000000000,
000000300000200000200000100100200200100000200000,
100000000200100000200000100100200000100200000100,
100000000200100000200000100100200000300000000000,
#GOGOEND
300000202020200000200000100000100000200000100000,
100000202020200000100000100000100000200000100000,
100000202020200000200000100000100000200000100000,
100000000000200000200000100000100000200000000000,
100000202020100000200000100000100000200000100000,
100000202020100000200000100000100000200000100000,
100000202020100000200000000000100000200000000000,
100000202020100000200000000000200000400000000000,
300000202020200000200000000000100000200000000000,
100000202020200000200000000000100000200000100000,
100000202020200000200000000000100000200000000000,
100000202020200000200000000000100000200000100000,
100000202020100000200000000000100000200000100000,
100000202020100000200000000000100000200000100000,
100000200000100100200000200000100000200200100000,
300000300000400000300000000000000000000000000000,
100100200000200000100100200000200000100000200000,
100100200000200000100100200100200100100000200000,
100100200000200100100100200100200100100000200000,
100100200100200100100100200100200100200100200000,
400000004000000030000000300000003000000040000000,
200200100000100000200000100100200200100000000000,
200200100000100000200200100000100000200200100000,
100000200000200000100000000000300000000000000000,
100010001000200020001000200020001000200010002000,
101010101000200020001000202020201000200010002000,
100100200000100200200000200200100000000000000000,
100100000100200000100000000000400000000000000000,
100200200000100000100200200000100000100200200000,
000000200200100000200000100200200000200100200000,
100200000200100000200000000000400000400000000000,
100200000200100000100000000000300000300000000000,
#GOGOSTART
100000000100200000100000100200100100200000101010,
100000000100200000100000100200100200200000100000,
100100200000100100200000100100200000100100200200,
100000200200100000200200100000200200100000200200,
100000000100200000100000100200100100200000101010,
100000000100200000100000100200200100200200100000,
100100200000100100200000100100200000100100200200,
100000200200100000200200700000000000800000000000,
300000000100200000100000100200100100200000101010,
100000000100200000100000100200100200200000100000,
100100200000100100200000100100200000100100200200,
100000200200100000200000100200100100200000100000,
300000202020200000300000202020200000300000202020,
200000100000200000200000100100200200100000200000,
100100200200100100200200100100200200101010202020,
100000001010200000100000000000300000300000000000,
#M
700000000000000000000000000000000000800000000000,
200200100100200200100100200200100100200200100100,
700000000000000000000000000000000000800000000000,
200200100100200200100100200200100100200200100200,
100200100100200000200200100200100100100000100200,
100200100100200000200200100200100100100000000000,
300000000000300000000000300000300000000000300000,
000000000000000000001010100000000000000000000000,
300000000000000000300000000000000000300000000000,
000000300000300000300000400000400000400000000000,
#GOGOSTART
100000100200200000100000200200100000200000100000,
100000100200200000100000200200100000200000100000,
100000200100200000100000200200100000200100100000,
100000200100200000100000200200100000200100100000,
100100000100200000100000100100000100200000100000,
100000200100100000200000100100200000100000200000,
100000100200100000200000100200200000100000200000,
100000100200100000100100200100200100200000000000,
100000100200200000100000200200100000200000100000,
100000100200200000100000200200100000200000100000,
100000200100200000100000200200100000200100100000,
100000200100200000100000200200100000200100100000,
300000200100200000300000200000200000300000200100,
200000100200100200100000200100200000100000200000,
100100000100200000100000200100100000200000100000,
100100000100200000100000200100100000200000100000,
#GOGOEND
300000100000200000300000100000200000300000200000,
400000100000100000400000100000100000400000100000,
300000100000200000300000100000200000300000200000,
400000100000100000400000200100100000400000100000,
300000100000200000300000100000200000300000200000,
400000100000100000400000100000100000400000100000,
300000200100100000300000200000300000200100100000,
300000200200100000300000200000300000200200100000,
300000200000200000300000200000200000400000200000,
400000100000100000400000100000100000400000200000,
300000200000200000300000200000200000400000200000,
400000100000100000400000100200100000400000100000,
300000200100200000300000200000300000200200100000,
300000200100200000300000200000300000200200100000,
300000100200100000300000200000300000100200100000,
300000300000400000300000000000000000000000000000,
100200100000200000100200000000300000200200100000,
200100200000100000200100000000400000100100200000,
100200100000200000100200000000300000200200100000,
200100200000100000200100000000300000400000400000,
300000200100000200100000300000200100000200100000,
200100200000100100200200100200100200100000000000,
100200100000200000100200100000200000200100200000,
300000400000300000400000000000300000000000000000,
300000100200000100200000300000200100000200100000,
300000100200000100200000300000200100000200100000,
300000400000300000400000300000400000200200100100,
200100000200100000400000100000400000000000000000,
100100200200100200100100200200100200100100200200,
100100200200100200100100200200100200100100200200,
100200000200100000100200000000300000300000000000,
300000200100200000300000200000300000300000000000,
#GOGOSTART
100000100200200000100000200200100000200000100000,
100000100200200000100000200200100000200000100000,
100000200100200000100000200200100000200100100000,
100000200100200000100000200200100000200100100000,
100200000100200000100100100200000100200000100200,
100000200100100000200000100100200000100000200000,
100000100200100000200000100200200000100000200000,
100000100200100000100100200200100200100000000000,
100000100200200000100000200200100000100200100000,
100000100200200000100000200200100000100200100000,
100000200100200000100000200200100000200100100000,
100000200100200000100000200200100000200100100000,
300000100200100000300000200000300000200200100100,
200000100200100100200200100200200100200200100000,
300000200100100000400000300000200100100000400000,
100200000100200000300000200000300000300000000000,
#BRANCHEND
#GOGOEND
#END

COURSE:Hard
LEVEL:7
BALLOON:13,13,10,10,10,13,13,10,10,10
SCOREINIT:540
SCOREDIFF:125
#START
#MEASURE 5/4
000000000000000000000000000000000000000000000000000000000000,
#MEASURE 4/4
700000000000000000000000000000000800000000000000,
100100100000200000200000100100100000200000200000,
700000000000000000000000000000000800000000000000,
100100100000200000200000100100100000200000200000,
100100100000200000000000200200200000200000000000,
100100100000200000000000200200200000200000000000,
300000000000300000000000300000300000000000300000,
000000000000000000000000400000000000000000000000,
300000000000000000300000000000000000300000000000,
000000100000100000100000200000200000200000000000,
#GOGOSTART
100000100100100000200000100000100000200000200000,
100000100100100000200000100000100000200000200000,
700000000000000000000000000800000000000000100100,
100000000000200000200000100000200000200000000000,
100000000000200000200000100000000000200000200000,
100000100100100000200000100000100000200000000000,
700000000000000000000000000800000000000000100100,
100000000000200000200000100000200000200000000000,
100000100100100000200000100000100000200000200000,
100000100100100000200000100000100000200000200000,
700000000000000000000000000800000000000000100100,
100000000000200000200000100000200000200000000000,
300000000000000000300000000000000000300000000000,
000000200000200000200000100000100000100000000000,
100000200000100000200000000000200000000000200000,
100000200000100000200000000000200000000000200000,
#GOGOEND
100000000000100000200000000000000000200000100000,
100000000000100000200000000000000000200000100000,
100000000000100000200000000000000000200000100000,
100000000000200000100000200200100000200000000000,
100000000000100000200000000000000000200000100000,
100000000000100000200000000000000000200000100000,
700000000000000000000000000000000800000000000000,
100000100100100000100000000000200000200000000000,
100000000000200000100000000000000000000000100000,
100000000000200000100000000000000000000000100000,
100000000000200000100000000000000000000000100000,
100000000000200000100000200200100000200000000000,
300000000000000000300000000000000000300000000000,
300000000000000000300000000000000000300000000000,
700000000000000000000000000000000800000000000000,
300000300000400000300000000000000000000000000000,
100100100000100000000000000000300000000000000000,
200200200000200000000000000000400000000000000000,
100100100000100000000000000000300000000000000000,
200200200000200000000000000000300000000000000000,
300000003000000030000000400000004000000040000000,
100100100000200000200000100000100000100000000000,
100100100000000000100100100000000000100100100000,
300000300000400000300000000000300000000000000000,
300000003000000030000000400000004000000040000000,
300000003000000030000000400000004000000040000000,
300000300000400000400000300000300000000000000000,
100100000100100000300000000000300000000000000000,
100100100000000000100100100000000000100100100000,
000000200200200000000000200200200000000000200200,
100100000100100000100000000000300000300000000000,
300000000100100000100000000000300000300000000000,
#GOGOSTART
100000100100100000200000100000100000200000200000,
100000100100100000200000100000100000200000200000,
700000000000000000000000000800000000000000100100,
100000000000200000200000100000200000200000000000,
100000000000200000200000100000000000200000200000,
100000100100100000200000100000100000200000000000,
700000000000000000000000000800000000000000100100,
100000000000200000200000100000200000200000000000,
100000200200100000200000100000100000200000200000,
100000200200100000200000100000100000200000200000,
700000000000000000000000000800000000000000100100,
100000000000200000200000100000200000200000000000,
300000000000000000300000000000000000300000000000,
000000200000200000200000100000100000100000000000,
100000200000100000200000100000200000100000200000,
100000000100100000100000000000300000300000000000,
#GOGOEND
#END

COURSE:Normal
LEVEL:5
BALLOON:8,8,8,20,12,12,20,8,8,8,8
SCOREINIT:720
SCOREDIFF:190
#START
#MEASURE 5/4
000000000000000000000000000000000000000000000000000000000000,
#MEASURE 4/4
300000000000000000000000000000000000000000000000,
200000200000200000000000200000200000200000000000,
300000000000000000000000000000000000000000000000,
200000200000200000000000200000200000200000000000,
300000000000000000000000400000000000000000000000,
300000000000000000000000400000000000000000000000,
300000000000300000000000300000300000000000300000,
000000000000000000000000000000000000000000000000,
300000000000000000300000000000000000300000000000,
000000100000100000100000100000000000200000000000,
#GOGOSTART
100000000000100000100000100000000000100000100000,
100000000000100000100000100000000000200000000000,
700000000000000000000000000800000000000000000000,
300000000000000000000000000000000000000000000000,
100000000000200000200000200000000000200000200000,
200000000000200000200000200000000000100000000000,
700000000000000000000000000800000000000000000000,
300000000000000000000000400000000000000000000000,
100000000000100000100000100000000000100000100000,
100000000000100000100000100000000000200000000000,
700000000000000000000000000800000000000000000000,
300000000000000000000000000000000000000000000000,
300000000000000000300000000000000000300000000000,
9,
,
8,
#GOGOEND
100000000000000000100000000000200000200000000000,
100000000000000000100000000000200000200000000000,
100000000000000000100000000000200000200000000000,
100000000000000000000000000000000000000000000000,
100000000000000000100000000000100000200000000000,
100000000000000000100000000000100000200000000000,
700000000000000000000000000000000000000000000800,
000000000000000000000000000000000000000000000000,
100000000000000000200000000000200000200000000000,
100000000000000000200000000000200000200000000000,
100000000000000000200000000000200000200000000000,
100000000000000000000000000000000000000000000000,
300000000000000000300000000000000000300000000000,
300000000000000000300000000000000000300000000000,
700000000000000000000000000000000000000000000800,
000000000000000000000000000000000000000000000000,
100000000000100000000000000000300000000000000000,
200000000000200000000000000000400000000000000000,
100000000000100000000000000000300000000000000000,
200000000000200000000000000000400000000000000000,
600000000000000000000000000000000800000000000000,
300000000000300000000000300000000000000000000000,
300000000000000000300000000000000000300000000000,
300000000000300000000000000000000000000000000000,
9,
,
8,
300000000000300000300000000000300000000000000000,
100000100000000000100000100000000000100000100000,
000000200000200000000000200000200000000000000000,
700000000000000000000000000800000000000000000000,
300000000000300000300000000000300000300000000000,
#GOGOSTART
100000000000100000100000100000000000100000100000,
100000000000100000100000100000000000200000000000,
700000000000000000000000000800000000000000000000,
300000000000000000000000000000000000000000000000,
100000000000200000200000200000000000200000200000,
200000000000200000200000200000000000100000000000,
700000000000000000000000000800000000000000000000,
300000000000000000000000400000000000000000000000,
100000000000200000200000100000000000200000200000,
100000000000200000200000100000000000200000000000,
700000000000000000000000000800000000000000000000,
300000000000000000000000000000000000000000000000,
300000000000000000300000000000000000300000000000,
500000000000000000000000000000000800000000000000,
600000000000000000000000000000000800000000000000,
300000000000300000300000000000300000300000000000,
#GOGOEND
#END

COURSE:Easy
LEVEL:5
BALLOON:6,6,6,15,8,8,15,6,6,6,6
SCOREINIT:680
SCOREDIFF:183
#START
#MEASURE 5/4
000000000000000000000000000000000000000000000000000000000000,
#MEASURE 4/4
300000000000000000000000000000000000000000000000,
200000000000200000000000200000000000000000000000,
300000000000000000000000000000000000000000000000,
200000000000200000000000200000000000000000000000,
300000000000000000000000400000000000000000000000,
300000000000000000000000400000000000000000000000,
100000000000100000000000100000000000000000300000,
000000000000000000000000000000000000000000000000,
100000000000000000100000000000000000100000000000,
500000000000000000000000800000000000000000000000,
#GOGOSTART
100000000000100000000000100000000000000000000000,
100000000000100000000000100000000000000000000000,
700000000000000000000000800000000000000000000000,
100000000000000000000000100000000000000000000000,
100000000000100000100000100000000000000000000000,
100000000000100000100000100000000000000000000000,
700000000000000000000000800000000000000000000000,
100000000000000000000000200000000000000000000000,
100000000000200000000000100000000000000000000000,
100000000000200000000000100000000000000000000000,
700000000000000000000000800000000000000000000000,
100000000000000000000000100000000000000000000000,
300000000000000000300000000000000000300000000000,
9,
,
8,
#GOGOEND
100000000000000000000000000000000000100000000000,
100000000000000000000000200000000000000000000000,
100000000000000000000000000000000000100000000000,
100000000000000000000000200000000000000000000000,
100000000000000000000000000000000000200000000000,
200000000000000000000000000000000000200000000000,
9,
8,
100000000000000000000000000000000000200000000000,
100000000000000000000000200000000000000000000000,
100000000000000000000000000000000000200000000000,
100000000000000000000000200000000000000000000000,
100000000000000000000000000000000000100000000000,
100000000000000000000000000000000000100000000000,
9,
8,
100000000000100000000000000000000000000000000000,
200000000000200000000000000000000000000000000000,
100000000000100000000000000000000000000000000000,
200000000000200000000000000000000000000000000000,
600000000000000000000000800000000000000000000000,
300000000000300000000000300000000000000000000000,
300000000000000000300000000000000000300000000000,
300000000000300000000000000000000000000000000000,
9,
,
8,
300000000000300000000000000000300000000000000000,
100000100000000000100000100000000000100000100000,
000000100000100000000000100000100000000000000000,
700000000000000000000000800000000000000000000000,
300000000000300000000000000000300000300000000000,
#GOGOSTART
100000000000200000000000100000000000000000000000,
100000000000200000000000100000000000000000000000,
700000000000000000000000800000000000000000000000,
100000000000000000000000200000000000000000000000,
100000000000200000200000200000000000000000000000,
100000000000200000200000200000000000000000000000,
700000000000000000000000800000000000000000000000,
100000000000000000000000200000000000000000000000,
100000000000100000100000100000000000000000000000,
100000000000100000100000100000000000000000000000,
700000000000000000000000800000000000000000000000,
100000000000000000000000200000000000000000000000,
300000000000000000300000000000000000300000000000,
500000000000000000000000800000000000000000000000,
600000000000000000000000800000000000000000000000,
300000000000300000000000000000300000300000000000,
#GOGOEND
000000000000000000000000000000000000000000000000,
000000000000000000000000000000000000000000000000,
000000000000000000000000000000000000000000000000,
000000000000000000000000000000000000000000000000,
#END
