//TJADB Project
TITLE:No Gravity
TITLEJA:No Gravity
SUBTITLE:--Lyo
SUBTITLEJA:
BPM:142
WAVE:No Gravity.ogg
OFFSET:-1.934
DEMOSTART:67.638 //shinuchi:
8480/5740/3010/1460

COURSE:Oni
LEVEL:10
BALLOON:
SCOREINIT:550,1480
SCOREDIFF:143
#START
#MEASURE 5/4
3,
#MEASURE 4/4
1011102011101011,
#MEASURE 2/4
1212,
#MEASURE 5/4
400000101010100000200000100100100000200000100100100000200200,
#MEASURE 4/4
1011101120201222,
#MEASURE 2/4
100201100200, //6
#MEASURE 5/4
10010020100120122010,
#MEASURE 4/4
1011202010012012,
#MEASURE 2/4
20011020,
#MEASURE 5/4
10012022101020110020,
#MEASURE 3/4
101110101111,
202012221022,
#MEASURE 4/4
2212221040403030, //13
6,
#MEASURE 2/4
000000000000000000000008,
#MEASURE 5/4
0,
#MEASURE 4/4
2002001010102010,
#MEASURE 2/4
2212,
#MEASURE 4/4
200100100200000000100000100000201010200000100100,
#MEASURE 3/8
021120, //20
#MEASURE 4/4
1112001010112010,
#MEASURE 2/4
2212,
#MEASURE 5/4
20120010101120102010,
#MEASURE 4/4
2002001010102022,
#MEASURE 2/4
22101010,
#MEASURE 5/8
2022010220,
2022010220,
#MEASURE 2/4
11112222, //28
#MEASURE 4/4
#GOGOSTART
1021022210102010,
1021002010102010,
500000000008000000200000100000200000100000500000,
#MEASURE 3/4
000008000000200200101010100200200200,
#MEASURE 4/4
1021022210102010,
1021002010102010,
1022110102102202,
#MEASURE 7/8
10210210210220, //36
#GOGOEND
#MEASURE 15/16
120220220202020,
120220220202020,
122122100202020,
122122100202020,
120220220202020,
120220220202020,
#MEASURE 4/4
111111222222111111222222,
111111222222111111222222, //44
#MEASURE 4/4
#BPMCHANGE 284
#GOGOSTART
10112222,
10112222,
10221122,
11112222,
10211221,
12112121,
11122221,
#MEASURE 7/8
1211221, //52
#MEASURE 4/4
10112222,
10112222,
10221122,
11112222,
10211221,
12112121,
111111222222,
#MEASURE 7/8
101010202020000000000, //60
#GOGOEND
#BPMCHANGE 142
11212122111222,
#MEASURE 4/4
1121212211122212,
#MEASURE 7/8
11212122111222,
#MEASURE 4/4
1121212211122212,
#MEASURE 7/16
1221222, //65
#MEASURE 3/4
112121221212,
112121221212,
#MEASURE 4/4
1121212212121222,
#MEASURE 7/8
11212122111222,
#MEASURE 4/4
1121212211122212,
#MEASURE 7/8
11112122111222,
#MEASURE 4/4
1111212211122212,
#MEASURE 3/4
1, //73
3,
#MEASURE 4/4
1101021122121122,
500000000000000000000008000000000000000000000000,
0,
0, //78
#END

COURSE:Hard
LEVEL:7
BALLOON:20,10,10
SCOREINIT:830,3190
SCOREDIFF:233
#START
#MEASURE 5/4
3,
#MEASURE 4/4
1001101000101001,
#MEASURE 2/4
1101,
#MEASURE 5/4
4,
#MEASURE 4/4
1001101000102011,
#MEASURE 2/4
1212, //6
#MEASURE 5/4
3,
#MEASURE 4/4
1001101000101001,
#MEASURE 2/4
1101,
#MEASURE 5/4
4,
#MEASURE 3/4
100110100010,
201011101020,
#MEASURE 4/4
1011101030303030, //13
6,
#MEASURE 2/4
000000000000000000000008,
#MEASURE 5/4
0,
#MEASURE 4/4
2002001010102020,
#MEASURE 2/4
2111,
#MEASURE 4/4
2002001010102020,
#MEASURE 3/8
211, //20
#MEASURE 4/4
2002001010102020,
#MEASURE 2/4
2111,
#MEASURE 5/4
20020010101020202010,
#MEASURE 4/4
2002001010102020,
#MEASURE 2/4
2111,
#MEASURE 5/8
2020020200,
2020020200,
#MEASURE 2/4
11110000, //28
#MEASURE 4/4
#GOGOSTART
1011002000102010,
1011002000102010,
10021215,
#MEASURE 3/4
000008000000200200100100000000000000,
#MEASURE 4/4
1011002000102010,
1011002000102010,
1011220102201000,
#MEASURE 7/8
10010010010020, //36
#GOGOEND
#MEASURE 15/16
0,
0,
220200200000000,
220200200000000,
110100100000000,
110100100000000,
#MEASURE 4/4
7,
0008, //44
#BPMCHANGE 284
#SCROLL 0.75
#GOGOSTART
10111000,
10111000,
10111010,
20111000,
10111000,
10111000,
7,
#MEASURE 7/8
0000008, //52
#MEASURE 4/4
10111000,
10111000,
10111010,
20111000,
10111000,
10111000,
7,
#MEASURE 7/8
0000800, //60
#GOGOEND
#BPMCHANGE 142
#SCROLL 1
10101000200200,
#MEASURE 4/4
1010100020020020,
#MEASURE 7/8
10101000200200,
#MEASURE 4/4
1010100020020020,
#MEASURE 7/16
1111000,
#MEASURE 3/4
212,
212,
#MEASURE 4/4
2000100020002011,
#MEASURE 7/8
10101000200200, //69
#MEASURE 4/4
1010100020020020,
#MEASURE 7/8
11101000200200,
#MEASURE 4/4
1110100020020020,
#MEASURE 3/4
3,
3,
#MEASURE 4/4
1101011120020020,
500000000000000000000008000000000000000000000000,
0,
0, //78
#END

COURSE:Normal
LEVEL:6
BALLOON:12,7,7
SCOREINIT:1220,6360
SCOREDIFF:473
#START
#MEASURE 5/4
3,
#MEASURE 4/4
10110110,
#MEASURE 2/4
1100,
#MEASURE 5/4
4,
#MEASURE 4/4
10110110,
#MEASURE 2/4
1100, //6
#MEASURE 5/4
3,
#MEASURE 4/4
10110110,
#MEASURE 2/4
1100,
#MEASURE 5/4
4,
#MEASURE 3/4
101101,
101101,
#MEASURE 4/4
10103333, //13
6,
#MEASURE 2/4
000000000000000000000008,
#MEASURE 5/4
0,
#MEASURE 4/4
2002000000000000,
#MEASURE 2/4
0,
#MEASURE 4/4
2002000000000000,
#MEASURE 3/8
0, //20
#MEASURE 4/4
2002000000002000,
#MEASURE 2/4
0200,
#MEASURE 5/4
20020000000020002000,
#MEASURE 4/4
2002000000002000,
#MEASURE 2/4
0200,
#MEASURE 5/8
2002000000,
2002000000,
#MEASURE 2/4
0, //28
#MEASURE 4/4
#GOGOSTART
1001000000102000,
1001000000102000,
10021015,
#MEASURE 3/4
000000000008000000000000000000000000, //32
#MEASURE 4/4
1001000000102000,
1001000000102000,
11,
#MEASURE 7/8
500000000000000000000000000000000000000008, //36
#GOGOEND
#MEASURE 15/16
0,
0,
200000200000000,
200000200000000,
100100100000000,
100100100000000,
#MEASURE 4/4
7,
0008, //44
#BPMCHANGE 284
#SCROLL 0.75
#GOGOSTART
11,
11,
11,
1120,
11,
11,
7,
#MEASURE 7/8
0000008, //52
#MEASURE 4/4
11,
11,
11,
1120,
11,
11,
7,
#MEASURE 7/8
0000800, //60
#GOGOEND
#BPMCHANGE 142
#SCROLL 1
1010100,
#MEASURE 4/4
1110,
#MEASURE 7/8
1010100,
#MEASURE 4/4
1110,
#MEASURE 7/16
0,
#MEASURE 3/4
212,
212,
#MEASURE 4/4
2120,
#MEASURE 7/8
10001000100100, //69
#MEASURE 4/4
1110,
#MEASURE 7/8
10001000100100,
#MEASURE 4/4
1110,
#MEASURE 3/4
3,
3,
#MEASURE 4/4
3003006000000000,
000000000000000000000008000000000000000000000000,
0,
0, //78
#END

COURSE:Easy
LEVEL:4
BALLOON:10,6,6
SCOREINIT:990,9560
SCOREDIFF:540
#START
#MEASURE 5/4
3,
#MEASURE 4/4
10010010,
#MEASURE 2/4
0,
#MEASURE 5/4
4,
#MEASURE 4/4
10010010,
#MEASURE 2/4
0, //6
#MEASURE 5/4
3,
#MEASURE 4/4
10010010,
#MEASURE 2/4
0,
#MEASURE 5/4
4,
#MEASURE 3/4
11,
500000000000000000000000000000000008,
#MEASURE 4/4
0033, //13
6,
#MEASURE 2/4
000000000000000000000008,
#MEASURE 5/4
0,
#MEASURE 4/4
0,
#MEASURE 2/4
0,
#MEASURE 4/4
0,
#MEASURE 3/8
0, //20
#MEASURE 4/4
2002,
#MEASURE 2/4
0200,
#MEASURE 5/4
20022,
#MEASURE 4/4
2002,
#MEASURE 2/4
0200,
#MEASURE 5/8
22,
22,
#MEASURE 2/4
1, //28
#MEASURE 4/4
#GOGOSTART
1001000000002000,
1001000000002000,
11,
#MEASURE 3/4
2,
#MEASURE 4/4
1001000000002000,
1001000000002000,
11,
#MEASURE 7/8
500000000000000000000000000000000000000008, //36
#GOGOEND
#MEASURE 15/16
0,
0,
2,
2,
100000100000000,
100000100000000,
#MEASURE 4/4
7,
0008, //44
#BPMCHANGE 284
#SCROLL 0.75
#GOGOSTART
11,
1,
11,
1,
11,
1,
7,
#MEASURE 7/8
0000008, //52
#MEASURE 4/4
11,
1,
11,
1,
11,
1,
7,
#MEASURE 7/8
0000800, //60
#GOGOEND
#BPMCHANGE 142
#SCROLL 1
1010100,
#MEASURE 4/4
1110,
#MEASURE 7/8
1010100,
#MEASURE 4/4
1110,
#MEASURE 7/16
0,
#MEASURE 3/4
202,
0,
#MEASURE 4/4
22,
#MEASURE 7/8
1010100, //69
#MEASURE 4/4
1110,
#MEASURE 7/8
1010100,
#MEASURE 4/4
1110,
#MEASURE 3/4
3,
3,
#MEASURE 4/4
3003000000000000,
600000000000000000000008000000000000000000000000,
0,
0, //78
#END
