//TJADB Project
TITLE:TOKIMEKI Escalate
TITLEJA:TOKIMEKIエスカレート
SUBTITLE:--Tetsuya Uchida feat. Haruka Yoshimura/THE iDOLM@STER Cinderella Girls: Starlight Stage
SUBTITLEJA:「アイドルマスター シンデレラガールズ」より
BPM:140
WAVE:TOKIMEKI Escalate.ogg
OFFSET:-1.919
DEMOSTART:65.131 //shinuchi:
8160/5600/2680/2060/1410

COURSE:Edit
LEVEL:9
BALLOON:
SCOREINIT:480,1480
SCOREDIFF:118
#START
#BARLINEOFF
200000200000200000200200200000200000200000202020,
200200200000200000200200200000200020200000200000,
200200200200200200111100,
#BARLINEON
1313,
100000300000111100300000,
1313,
10301031,
100100100100100100111100,
3000000000000012, //9
#GOGOSTART
1020101120210012,
500000000000000000000008000000400000400000100200,
1021201212212010,
2021221210202012,
1020101120210012,
500000000000000000000008000000400000400000100000,
1021201212212010,
2021201212204060, //17
000000000000000000000000000000000000000008000000,
#GOGOEND
0101,
1220102012201020,
1011112012112120,
01212021,
2011201022112010,
01212021,
2011201020222020, //25
01212021,
2011201022112010,
0011201122112011,
2022101012121012,
1111201210102012,
1221202120102012,
1111201210102050,
000000000000000000000008000000000000200000100200,
1111201210102012,
1221202120112030,
0011203000112012,
2212102111202212, //37
#GOGOSTART
1020101120210012,
500000000000000000000008000000400000400000100200,
1021201212212010,
2021221210202012,
1020101120210012,
500000000000000000000008000000400000400000100000,
1021201212212010,
2021202111212212, //45
1020101120210012,
500000000000000000000008000000400000400000100200,
1021201212212010,
2021221210202012,
1020101120210012,
500000000000000000000008000000400000400000100000,
1021201212212010,
2021201212204060, //53
000000000000000000000000000000000000000008000000,
00004046,
000000000000000000000000000000000000000008000000,
00000033,
1122112211221121,
2211221122122212,
#GOGOEND
1122112211221121,
2222222222112211, //61
#GOGOSTART
11221211
#GOGOEND
11221211,
#GOGOSTART
11221211
#GOGOEND
22122122,
#GOGOSTART
11221211
#GOGOEND
11221211,
#GOGOSTART
222222222212
#GOGOEND
1121, //65
#GOGOSTART
11211211
#GOGOEND
21121122,
#GOGOSTART
11211211
#GOGOEND
22122122,
#GOGOSTART
11211211
#GOGOEND
21121121,
#GOGOSTART
2222222222121121,
#GOGOEND
0,
0,
0, //72
#END

COURSE:Oni
LEVEL:6
BALLOON:
SCOREINIT:600,2250
SCOREDIFF:155
#START
#BARLINEOFF
0,
0,
0,
#BARLINEON
0101,
0000100011101000,
0101,
0101,
1010101010101110,
3000000000000011, //9
#GOGOSTART
1020201010220011,
1020201000404011,
1021201010212010,
2021201020000011,
1020201010220011,
12210441,
1021201010212011,
1021201040004060, //17
000000000000000000000000000000000000000008000000,
#GOGOEND
0101,
0101,
1011111020222200,
01212021,
2000201020112010,
01212021,
2000201020222020, //25
01212021,
2000201020112010,
0010201120112020,
30403021,
0010201210102010,
0010202220002010,
01210125,
000000000000000000000008000000000000200000100000,
0010201210102010,
0010202220002010,
0010201000112050,
000000000000000000000000000008000000000000100100, //37
#GOGOSTART
1020201010220011,
1020201000404011,
1021201010212010,
2021201020000011,
1020201010220011,
1020201000404011,
1021201010212011,
1021201010111011, //45
1020201010220011,
1020201000404011,
1021201010212010,
2021201020000011,
1020201010220011,
1020201000404011,
1021201010212011,
1021201040004060, //53
000000000000000000000000000000000000000008000000,
00004046,
000000000000000000000000000000000000000008000000,
00000036,
0,
000000000000000000000000000000000000000008000000,
#GOGOEND
0,
0, //61
#GOGOSTART
30222022
#GOGOEND
20222020,
#GOGOSTART
30222020
#GOGOEND
22202220,
#GOGOSTART
30222022
#GOGOEND
20222020,
#GOGOSTART
313142
#GOGOEND
42, //65
#GOGOSTART
30222022
#GOGOEND
20222020,
#GOGOSTART
30222020
#GOGOEND
22202220,
#GOGOSTART
30222022
#GOGOEND
20222020,
#GOGOSTART
31314242,
#GOGOEND
0,
0,
0, //72
#END

COURSE:Hard
LEVEL:5
BALLOON:10,10,17
SCOREINIT:620,3050
SCOREDIFF:165
#START
#BARLINEOFF
0,
0,
0,
#BARLINEON
0101,
0000100011101000,
0101,
0101,
1010101010101110,
30000001, //9
#GOGOSTART
1020201010220010,
12210441,
1022001010202010,
1022001010000010,
1020201010220010,
12210441,
1022001010000010,
1022001010003060, //17
000000000000000000000000000000000000000008000000,
#GOGOEND
9009,
8,
#SCROLL 2
7008,
#SCROLL 1
01212021,
20212021,
01212021,
20212000, //25
01212021,
20212121,
01212121,
30303021,
01201121,
01201021,
01210125,
000000000000000000000008000000000000200000100000,
01201121,
01201021,
01210125,
000000000000000000000000000008000000000000100000, //37
#GOGOSTART
1020201010220010,
12210441,
1022001010202010,
1022001010000010,
1020201010220010,
12210441,
1022001010000010,
1022001010000010, //45
1020201010220010,
12210441,
1022001010202010,
1022001010000010,
1020201010220010,
12210441,
1022001010000010,
1022001010003060, //53
000000000000000000000000000000000000000008000000,
00003036,
000000000000000000000000000000000000000008000000,
0009,
0,
000000000000000009000000000000000000000000080000,
#GOGOEND
0,
0, //61
#GOGOSTART
30000000
#GOGOEND
22202220,
#GOGOSTART
30000000
#GOGOEND
11101110,
#GOGOSTART
40000000
#GOGOEND
22202220,
#GOGOSTART
334
#GOGOEND
4, //65
#GOGOSTART
30000000
#GOGOEND
22202220,
#GOGOSTART
30000000
#GOGOEND
11101110,
#GOGOSTART
40000000
#GOGOEND
22202220,
#GOGOSTART
3344,
#GOGOEND
0,
0,
0, //72
#END

COURSE:Normal
LEVEL:3
BALLOON:4,4,10,6,5,5,5,5,17
SCOREINIT:900,8700
SCOREDIFF:320
#START
#BARLINEOFF
0,
0,
0,
#BARLINEON
0101,
0101,
0101,
0101,
1111,
3, //9
#GOGOSTART
1110,
70008330,
0101,
4444,
0101,
70008330,
0101,
0116, //17
000000000000000000000000000000000000000008000000,
#GOGOEND
9009,
8,
#SCROLL 2
7008,
#SCROLL 1
0101,
0111,
0101,
0120, //25
0101,
0111,
2121,
3333,
500000000000000000000008000000000000400000000000,
500000000000000000000008000000000000400000000000,
500000000000000000000008000000000000400000000000,
500000000000000000000008000000000000400000000000,
500000000000000000000008000000000000400000000000,
500000000000000000000008000000000000400000000000,
0406,
000000000000000000000000000008000000000000000000, //37
#GOGOSTART
1110,
70008330,
0101,
4444,
0101,
70008330,
0101,
0110, //45
1110,
70008330,
0101,
4444,
0101,
70008330,
0101,
0116, //53
000000000000000000000000000000000000000008000000,
06,
000000000000000000000000000000000000000008000000,
0009,
0,
000000000000000009000000000000000000000000080000,
#GOGOEND
0,
0, //61
#GOGOSTART
3
#GOGOEND
0,
#GOGOSTART
3
#GOGOEND
0,
#GOGOSTART
4
#GOGOEND
0,
#GOGOSTART
334
#GOGOEND
4, //65
#GOGOSTART
3
#GOGOEND
0,
#GOGOSTART
3
#GOGOEND
0,
#GOGOSTART
4
#GOGOEND
0,
#GOGOSTART
3344,
#GOGOEND
0,
0,
0, //72
#END

COURSE:Easy
LEVEL:2
BALLOON:6,17
SCOREINIT:810,9890
SCOREDIFF:385
#START
#BARLINEOFF
0,
0,
0,
#BARLINEON
0101,
0101,
0101,
0101,
1111,
3, //9
#GOGOSTART
11,
500000000000000000000000000008000000000000000000,
11,
1120,
11,
500000000000000000000000000008000000000000000000,
11,
1116, //17
000000000000000000000000000000000000000008000000,
#GOGOEND
0,
0,
#SCROLL 2
7008,
#SCROLL 1
0101,
0111,
0101,
0120, //25
0101,
0111,
0101,
0120,
1002,
1002,
1002,
1002,
1002,
1004,
0406,
000000000000000000000000000008000000000000000000, //37
#GOGOSTART
11,
500000000000000000000000000008000000000000000000,
11,
1120,
11,
500000000000000000000000000008000000000000000000,
11,
1110, //45
11,
500000000000000000000000000008000000000000000000,
11,
1120,
11,
500000000000000000000000000008000000000000000000,
11,
1116, //53
000000000000000000000000000000000000000008000000,
06,
000000000000000000000000000000000000000008000000,
0009,
0,
000000000000000009000000000000000000000000080000,
#GOGOEND
0,
0, //61
#GOGOSTART
3
#GOGOEND
0,
#GOGOSTART
3
#GOGOEND
0,
#GOGOSTART
4
#GOGOEND
0,
#GOGOSTART
333
#GOGOEND
3, //65
#GOGOSTART
3
#GOGOEND
0,
#GOGOSTART
3
#GOGOEND
0,
#GOGOSTART
4
#GOGOEND
0,
#GOGOSTART
3333,
#GOGOEND
0,
0,
0, //72
#END
