//TJADB Project
TITLE:FooFoo Casette
TITLEJA:FooFooカセット
SUBTITLE:--Harunaba feat. SaChi a.k.a. Harineko
SUBTITLEJA:はるなば feat.SaChi(harineko)
BPM:175
WAVE:FooFoo Casette.ogg
OFFSET:-2.813
DEMOSTART:61.513 //shinuchi:
5730/3500/2600/1180

COURSE:Oni
LEVEL:9
BALLOON:6,2,2,5,8,22,3
SCOREINIT:400,1230
SCOREDIFF:90
#START
#BARLINEOFF
#MEASURE 5/16
0,
#MEASURE 2/4
500008000000000000000000,
#BARLINEON
#MEASURE 4/4
#SCROLL 0.5
20122012,
20212010,
20122012,
20212012,
200000000000100000500000000000000000000008000000, //7
#MEASURE 1/16
#BPMCHANGE 176
#SCROLL 2.1
0,
#SCROLL 1.7
0,
#SCROLL 1.95
0,
#SCROLL 1.5
0,
#SCROLL 2.2
0,
#SCROLL 1.85
0,
#SCROLL 1.6
0,
#SCROLL 2.45
0,
#SCROLL 1.8
0,
#SCROLL 1.3
0,
#SCROLL 1.45
0,
#SCROLL 1.75
0,
#SCROLL 1.2
0,
#SCROLL 2.3
0,
#SCROLL 1.5
0,
#SCROLL 1.55
0, //23
#MEASURE 4/4
#BPMCHANGE 175
#SCROLL 1
1000221020100020,
0020221020100020,
0020221000002000,
0,
1022001022101020,
1002011022101020,
1022012022101020,
1002011022101020, //31
1022012022101020,
1002001022101020,
1022012022101020,
1002011022121020,
1012001022101020,
1012011022101020,
1012012022101020,
1012011022121020, //39
1012012022101020,
1012001022101020,
1012007000008000,
1012011022121020,
2001200020012000,
2001201020012000,
2001201020012010,
2001200020012010, //47
2001201020012000,
2001201020012010,
2001205000000000,
000000000000000000000008000000000000000000000000,
2001201020012110,
2001221020012010,
2201201020012010,
2001221020012022,
2001201020012120,
2001221020012010,
2201201022012220,
2210221122102000, //59
#GOGOSTART
7080708022101020,
1020221022112020,
1020221012012010,
1020221020102220,
1020221022112010,
0020221022101120,
1020221022112010,
0020221020222220, //67
1022102210202210,
1020221022112020,
1020221012012010,
1020221020102220,
1020221022112010,
1020221022112020,
1022201022201022,
21270080, //75
1122102212101210,
2211202120221210,
2102101211201120,
2012001020012000,
2022112011212120,
2112012212121210,
1122102211221121,
2021201122112211, //83
#GOGOEND
0,
#BARLINEOFF
0,
0, //86
#BARLINEON
#MEASURE 1/16
#SCROLL 0.5
0,
#SCROLL 0.6
0,
#SCROLL 0.7
0,
#SCROLL 0.8
0,
#SCROLL 0.9
0,
#SCROLL 1
0,
#SCROLL 1.1
0,
#SCROLL 1.2
0,
#SCROLL 1.3
0,
#SCROLL 1.4
0,
#SCROLL 1.5
0,
#SCROLL 1.6
0,
#SCROLL 1.7
0,
#SCROLL 1.8
0,
#SCROLL 1.9
0,
#SCROLL 2
0, //102
#MEASURE 4/4
#SCROLL 1
#GOGOSTART
1022221022101020,
2222102011202210,
1020221022012210,
1020221020222220,
1022221022121020,
2222102011202210,
1020221022121020,
78, //110
1222221022101020,
2222102011202210,
1020221022012210,
1020221020222220,
1122221022121020,
2222102011202210,
1020221022121020,
1111202022221000, //118
7,
08,
2010112220101122,
21222112,
2010112220101122,
200100200222200100100200,
2010112220101122,
200100200222200100100200, //126
#GOGOEND
1,
#BARLINEOFF
0,
0, //129
#BARLINEON
#MEASURE 1/16
#SCROLL 3
7,
#SCROLL 2.8
0,
#SCROLL 2.6
0,
#SCROLL 2.4
0,
#SCROLL 2.2
0,
#SCROLL 2.1
0,
#SCROLL 2
0,
#SCROLL 1.9
0,
#SCROLL 1.8
0,
#SCROLL 1.7
0,
#SCROLL 1.6
0,
#SCROLL 1.5
0,
#SCROLL 1.45
0,
#SCROLL 1.4
0,
#SCROLL 1.35
0,
#SCROLL 1.3
0,
#MEASURE 4/4
#SCROLL 1.25
000008000000000000000000000000000000000000000000, //146
#END

COURSE:Hard
LEVEL:6
BALLOON:8,8,2,2,17,25,3
SCOREINIT:650,2740
SCOREDIFF:163
#START
#BARLINEOFF
#MEASURE 5/16
0,
#MEASURE 2/4
0,
#BARLINEON
#MEASURE 4/4
10222020,
1220,
10222020,
1220,
100000000000000000500000000000000000000008000000, //7
#MEASURE 1/16
#BPMCHANGE 176
#SCROLL 2.1
0,
#SCROLL 1.7
0,
#SCROLL 1.95
0,
#SCROLL 1.5
0,
#SCROLL 2.2
0,
#SCROLL 1.85
0,
#SCROLL 1.6
0,
#SCROLL 2.45
0,
#SCROLL 1.8
0,
#SCROLL 1.3
0,
#SCROLL 1.45
0,
#SCROLL 1.75
0,
#SCROLL 1.2
0,
#SCROLL 2.3
0,
#SCROLL 1.5
0,
#SCROLL 1.55
0, //23
#BPMCHANGE 175
#MEASURE 4/4
#SCROLL 1
0,
0,
0,
0,
1001001000002000,
1001001000002000,
1001001000002000,
1002001000001000, //31
1001001000002000,
1002001000002000,
1002007000000000,
08000000,
1002001010002000,
1002001010002000,
1002001010002020,
1002001010201020, //39
1002001010002000,
1002001010002000,
1002007000000000,
0800,
20202120,
20202121,
20202120,
2000200020222000, //47
20202120,
20202121,
20250000,
000000000000000000000008000000000000000000000000,
20212120,
20202121,
20212120,
2000201020222000,
20212120,
20202121,
20250000,
000000000000000000000000000000000008000000000000, //59
#GOGOSTART
78781101,
01010220,
1000100010020010,
0020001110001010,
10101105,
000000000008000000000000100000100000200000200000,
10010225,
000000000008000000300000000000000000000000000000, //67
10101201,
01020222,
1000100010020010,
0020001110002000,
10020202,
1022,
1110001110001110,
000000200200200000500000000000000000000008000000, //75
7,
08,
2000100011101000,
2022,
2000100011101000,
2220200010001000,
1110100022202000,
2220200010001000, //83
#GOGOEND
0,
#BARLINEOFF
0,
0,
#BARLINEON
#MEASURE 1/16
#SCROLL 0.5
0,
#SCROLL 0.6
0,
#SCROLL 0.7
0,
#SCROLL 0.8
0,
#SCROLL 0.9
0,
#SCROLL 1
0,
#SCROLL 1.1
0,
#SCROLL 1.2
0,
#SCROLL 1.3
0,
#SCROLL 1.4
0,
#SCROLL 1.5
0,
#SCROLL 1.6
0,
#SCROLL 1.7
0,
#SCROLL 1.8
0,
#SCROLL 1.9
0,
#SCROLL 2
0, //102
#MEASURE 4/4
#SCROLL 1
#GOGOSTART
1000201000111000,
1000202000111000,
10250000,
000000000000000000000008000000000000000000000000,
1000201000111000,
1000202000111000,
1000201000222000,
3, //110
1000201000111000,
1000202000222000,
10250000,
000000000000000000000008000000000000000000000000,
1000201000111000,
1000202000222000,
1000201000111000,
1110100022202000, //118
7,
000000000000000000000000000000000000000000000008,
0,
0,
1000111010002220,
20222220,
1000111010002220,
20222222, //126
#GOGOEND
0,
#BARLINEOFF
0,
0,
#BARLINEON
#MEASURE 1/16
#SCROLL 3
7,
#SCROLL 2.8
0,
#SCROLL 2.6
0,
#SCROLL 2.4
0,
#SCROLL 2.2
0,
#SCROLL 2.1
0,
#SCROLL 2
0,
#SCROLL 1.9
0,
#SCROLL 1.8
0,
#SCROLL 1.7
0,
#SCROLL 1.6
0,
#SCROLL 1.5
0,
#SCROLL 1.45
0,
#SCROLL 1.4
0,
#SCROLL 1.35
0,
#SCROLL 1.3
0,
#MEASURE 4/4
#SCROLL 1.25
000008000000000000000000000000000000000000000000, //146
#END

COURSE:Normal
LEVEL:6
BALLOON:7,8,12,12,16,3
SCOREINIT:710,3770
SCOREDIFF:188
#START
#BARLINEOFF
#MEASURE 5/16
0,
#MEASURE 2/4
0,
#BARLINEON
#MEASURE 4/4
1210,
1220,
1210,
1220,
100000000000000000500000000000000000000008000000, //7
#MEASURE 1/16
#BPMCHANGE 176
#SCROLL 2.1
0,
#SCROLL 1.7
0,
#SCROLL 1.95
0,
#SCROLL 1.5
0,
#SCROLL 2.2
0,
#SCROLL 1.85
0,
#SCROLL 1.6
0,
#SCROLL 2.45
0,
#SCROLL 1.8
0,
#SCROLL 1.3
0,
#SCROLL 1.45
0,
#SCROLL 1.75
0,
#SCROLL 1.2
0,
#SCROLL 2.3
0,
#SCROLL 1.5
0,
#SCROLL 1.55
0, //23
#MEASURE 4/4
#BPMCHANGE 175
#SCROLL 1
0,
0,
0,
0,
1001001000000000,
1001001000000000,
100000000100000000500000000000000000000000000008,
0, //31
1001001000000000,
2002002000000000,
1001005000000000,
000008000000000000000000000000000000000000000000,
1002001000000000,
1002001000000000,
2002002000005000,
000000000000000000000008000000000000000000000000, //39
1002001000000000,
1002001000000000,
2002007000000000,
0800,
20202021,
2221,
20202021,
2220, //47
20202021,
2221,
20070000,
08,
20212021,
2221,
20212021,
2220,
20212021,
2221,
20070000,
0008, //59
#GOGOSTART
10101001,
01010020,
10101003,
0022,
10101001,
0011,
10020050,
000008000000000000300000000000000000000000000000, //67
10101001,
01010020,
10101003,
00020020,
100000000000000000500000000000000008000000000000,
3011,
30030030,
000000600000000000000000000000000008000000000000, //75
7,
08,
20202220,
2022,
20202220,
20202220,
2222,
22222020, //83
#GOGOEND
0,
#BARLINEOFF
0,
0,
#BARLINEON
#MEASURE 1/16
#SCROLL 0.5
0,
#SCROLL 0.6
0,
#SCROLL 0.7
0,
#SCROLL 0.8
0,
#SCROLL 0.9
0,
#SCROLL 1
0,
#SCROLL 1.1
0,
#SCROLL 1.2
0,
#SCROLL 1.3
0,
#SCROLL 1.4
0,
#SCROLL 1.5
0,
#SCROLL 1.6
0,
#SCROLL 1.7
0,
#SCROLL 1.8
0,
#SCROLL 1.9
0,
#SCROLL 2
0, //102
#MEASURE 4/4
#SCROLL 1
#GOGOSTART
10210010,
10210020,
10210011,
10210000,
10210010,
10210020,
10210010,
3, //110
10220010,
10220020,
10220011,
10220000,
10220010,
10220020,
10222210,
22102210, //118
9,
000000000000000000000009000000000000000000000008,
0,
0,
20222022,
20222220,
20222022,
20222222, //126
#GOGOEND
0,
#BARLINEOFF
0,
0,
#MEASURE 1/16
#BARLINEON
#SCROLL 3
7,
#SCROLL 2.8
0,
#SCROLL 2.6
0,
#SCROLL 2.4
0,
#SCROLL 2.2
0,
#SCROLL 2.1
0,
#SCROLL 2
0,
#SCROLL 1.9
0,
#SCROLL 1.8
0,
#SCROLL 1.7
0,
#SCROLL 1.6
0,
#SCROLL 1.5
0,
#SCROLL 1.45
0,
#SCROLL 1.4
0,
#SCROLL 1.35
0,
#SCROLL 1.3
0,
#MEASURE 4/4
#SCROLL 1.25
000008000000000000000000000000000000000000000000, //146
#END

COURSE:Easy
LEVEL:4
BALLOON:5,5,7,5,10,10,7,8,8,14,3
SCOREINIT:660,6470
SCOREDIFF:160
#START
#BARLINEOFF
#MEASURE 5/16
0,
#MEASURE 2/4
0,
#BARLINEON
#MEASURE 4/4
1,
11,
1,
11,
100000000000000000500000000000000000000008000000, //7
#MEASURE 1/16
#BPMCHANGE 176
#SCROLL 2.1
0,
#SCROLL 1.7
0,
#SCROLL 1.95
0,
#SCROLL 1.5
0,
#SCROLL 2.2
0,
#SCROLL 1.85
0,
#SCROLL 1.6
0,
#SCROLL 2.45
0,
#SCROLL 1.8
0,
#SCROLL 1.3
0,
#SCROLL 1.45
0,
#SCROLL 1.75
0,
#SCROLL 1.2
0,
#SCROLL 2.3
0,
#SCROLL 1.5
0,
#SCROLL 1.55
0, //23
#MEASURE 4/4
#BPMCHANGE 175
#SCROLL 1
0,
0,
0,
0,
1,
11,
100000000000000000500000000000000000000000000008,
0, //31
1,
11,
10050000,
000008000000000000000000000000000000000000000000,
1,
22,
10010050,
000000000000000000000008000000000000000000000000, //39
1,
22,
10070000,
0800,
22,
22,
20070000,
0800, //47
22,
22,
20070000,
08,
2220,
2220,
20070000,
0800,
2220,
2220,
20070000,
000000000000000000000000000000000000080000000000, //59
#GOGOSTART
1110,
1022,
1011,
1022,
1110,
1022,
1110,
00030000, //67
1110,
1022,
1011,
1022,
1022,
1011,
30030030,
000000600000000000000000000000000008000000000000, //75
7,
08,
22,
2222,
22,
22,
2222,
700000000000000000000000000000000000000000000008, //83
#GOGOEND
0,
#BARLINEOFF
0,
0,
#BARLINEON
#MEASURE 1/16
#SCROLL 0.5
0,
#SCROLL 0.6
0,
#SCROLL 0.7
0,
#SCROLL 0.8
0,
#SCROLL 0.9
0,
#SCROLL 1
0,
#SCROLL 1.1
0,
#SCROLL 1.2
0,
#SCROLL 1.3
0,
#SCROLL 1.4
0,
#SCROLL 1.5
0,
#SCROLL 1.6
0,
#SCROLL 1.7
0,
#SCROLL 1.8
0,
#SCROLL 1.9
0,
#SCROLL 2
0, //102
#MEASURE 4/4
#SCROLL 1
#GOGOSTART
1101,
1202,
10070000,
08,
1101,
1201,
1202,
3, //110
1101,
1202,
10070000,
08,
1202,
1202,
1222,
33, //118
9,
000000000000000000000009000000000000000000000008,
0,
0,
22,
2222,
22,
2222, //126
#GOGOEND
0,
#BARLINEOFF
0,
0,
#MEASURE 1/16
#BARLINEON
#SCROLL 3
7,
#SCROLL 2.8
0,
#SCROLL 2.6
0,
#SCROLL 2.4
0,
#SCROLL 2.2
0,
#SCROLL 2.1
0,
#SCROLL 2
0,
#SCROLL 1.9
0,
#SCROLL 1.8
0,
#SCROLL 1.7
0,
#SCROLL 1.6
0,
#SCROLL 1.5
0,
#SCROLL 1.45
0,
#SCROLL 1.4
0,
#SCROLL 1.35
0,
#SCROLL 1.3
0,
#MEASURE 4/4
#SCROLL 1.25
000008000000000000000000000000000000000000000000, //146
#END
