//TJADB Project
TITLE:Kokushin Chronicle
TITLEJA:黒神クロニクル
SUBTITLE:--Seifu Meigetsu [Drop × Yura Hatsuki]
SUBTITLEJA:
BPM:124
WAVE:Kokushin Chronicle.ogg
OFFSET:-2.088
DEMOSTART:54.305 //Shinuchi:
5730/3430/2090/1570

COURSE:Oni
LEVEL:7
BALLOON:10,10,10,16,20
SCOREINIT:510,1750
SCOREDIFF:125
#START
1001201110010010,
1001201110112011,
1010202000102022,
1011221020221011,
1001201110010010,
1001201110112011,
1010202000102022,
1011201022102010,
3003003030004000, //9
1001002010002000,
1001002010112000,
1001002110202000,
1001002010404000,
1001002010002020,
1001002010222000,
1001002010102000,
3003003030404000,
1000001220201020,
70008222,
11401240,
300000200000200200200200500000000000000008000000,
1000001220201020,
70008222,
1001201110012011,
1120112012201220,
600000000000000000000000000000000008000000000000,
7084, //27
#GOGOSTART
1010201100102012,
100000000100200000100000100000202020100000200000,
1001201010012010,
1001002011112022,
1010201100102012,
100000000100200000100000100000202020100000200000,
1001201010012010,
1001002011112022,
#GOGOEND
12020202,
3003003030030030, //37
1020212220222000,
1001202210222000,
1001201010012022,
1010201210221000,
1020212220222000,
1001202210222011,
1002002010020010,
700000000000000000000000000000000000080000000000,
600000000000000000000008000000000000000000000000, //46
2020202200002020,
2002002020000020,
2002002020020020,
2002002020222000,
1000200010002011,
1000200010222010,
1001200010012000,
3003003030004000, //54
#GOGOSTART
1010201100102012,
100000000100200000100000100000202020100000200000,
1001201010012010,
1011201011112222,
1010201100102012,
100000000100000000200000100000202020100000200000,
100111200100100111200100,
1001201011112222, //62
1020002000220020,
3003003040040040,
#GOGOEND
#BARLINEOFF
#SCROLL 0.66
0003, //65
#BARLINEON
#SCROLL 1
1001201110210120,
1001201110112011,
1010202000102022,
1011221020221011,
1001201110210120,
1001201110112022,
1010202000102022,
1011221022112210, //73
3003003030004000,
7,
8,
0,
0, //78
#END

COURSE:Hard
LEVEL:6
BALLOON:7,7,7,12,18
SCOREINIT:540,2380
SCOREDIFF:138
#START
1000200010010010,
1000001110002011,
11220120,
1010202010111000,
1000200010010010,
1000001110002011,
11220120,
10211020,
3003003030004000, //9
1001002010002000,
1001002010002000,
1001002010002000,
1001002010404000,
1001002010002000,
1001002010202000,
1001002010002000,
3003003030404000, //17
2000002220002020,
78,
11401240,
300000000000200200200000500000000000000008000000,
1000002220002020,
78,
1001201010012010,
1001001010010010,
600000000000000000000000000000000008000000000000,
7084, //27
#GOGOSTART
1010201100102000,
1001002010222000,
1001201010012010,
1001002010111000,
1010201100102000,
1001002010222000,
1001201010012010,
1001002010111000,
#GOGOEND
2002002000000000,
3003003030030030, //37
1000200010222000,
1000201110002010,
1000200010010020,
1000001110222000,
1000200010222000,
1000201110000011,
1002002010020010,
700000000000000000000000000000000000080000000000,
600000000000000000000008000000000000000000000000, //46
2020202200002020,
2002002020000020,
2002002020020020,
2002002020000000,
1000200010002011,
1000200010222010,
1001200010012000,
3003003030004000, //54
#GOGOSTART
1010201100102000,
1001002010222000,
1001201010012010,
1001002010222000,
1010201100102000,
1001002010222000,
1001201010012010,
1001002010222000, //62
2002002000222000,
3003003040040040,
#GOGOEND
#BARLINEOFF
#SCROLL 0.66
0003, //65
#BARLINEON
#SCROLL 1
1000200010010010,
1000001110002011,
11220120,
1010202010111000,
1000200010010010,
1000001110002011,
11220120,
1000201010222000, //73
3003003030004000,
7,
8,
0,
0, //78
#END

COURSE:Normal
LEVEL:4
BALLOON:5,5,5,35,8,12
SCOREINIT:630,4230
SCOREDIFF:170
#START
1210,
10011002,
20220220,
1011,
1210,
10011002,
20220220,
1012,
3003003030004000, //9
10022000,
10022000,
10022000,
10004440,
10022000,
10022000,
10022000,
30004440,
1022,
78,
1414,
500000000000000000000000000000000008000000000000,
1022,
78,
1414,
1111,
600000000000000000000000000000000008000000000000,
78, //27
#GOGOSTART
10201022,
1110,
1212,
10111000,
10201022,
1110,
1212,
10111000,
#GOGOEND
2002002000000000,
3003003030030030, //37
9,
0,
0900,
8,
1212,
1011,
33,
700000000000000000000000000000000000080000000000,
600000000000000000000008000000000000000000000000,
22,
20000002,
20022002,
2220,
1212,
10201001,
1212,
3003003030004000, //54
#GOGOSTART
10201022,
1110,
1212,
10111000,
10201022,
1110,
1212,
10111000, //62
2002002000000000,
3003003040040040,
#GOGOEND
#BARLINEOFF
#SCROLL 0.66
0003,
#BARLINEON
#SCROLL 1
1210,
10011002,
20220220,
1011,
1210,
10011002,
20220220,
1012,
3003003030004000,
7,
8,
0,
0, //78
#END

COURSE:Easy
LEVEL:3
BALLOON:4,4,4,26,6,7
SCOREINIT:650,6750
SCOREDIFF:205
#START
11,
1110,
22,
1011,
11,
1110,
22,
1011,
33, //9
1001,
1001,
1001,
1022,
1001,
1001,
1001,
1022,
22,
78,
0404,
500000000000000000000000000000000008000000000000,
22,
78,
0404,
1111,
600000000000000000000000000000000008000000000000,
78, //27
#GOGOSTART
1110,
1110,
0202,
1110,
1110,
1110,
0202,
1110,
#GOGOEND
2,
33, //37
9,
0,
0900,
8,
11,
1011,
33,
700000000000000000000000000000000000080000000000,
600000000000000000000008000000000000000000000000,
22,
2,
22,
2220,
11,
11,
0404,
600000000000000000000000000008000000000000000000, //54
#GOGOSTART
1110,
1110,
0202,
1110,
1110,
1110,
0202,
1110, //62
2,
33,
#GOGOEND
#BARLINEOFF
#SCROLL 0.66
0003,
#BARLINEON
#SCROLL 1
11,
1110,
22,
1011,
11,
1110,
22,
1011,
3034,
7,
8,
0,
0,
#END
