//TJADB Project
TITLE:HOWEVER
TITLEJA:HOWEVER
SUBTITLE:--GLAY
SUBTITLEJA:GLAY
BPM:78.976
WAVE:HOWEVER.ogg
OFFSET:-3.956
DEMOSTART:91.015 //Shinuhci:
11010/7360/4880/3130

COURSE:Oni
LEVEL:6
BALLOON:20
SCOREINIT:920,3230
SCOREDIFF:263
#START
#BARLINEOFF
#SCROLL 1.01
0,
#BARLINEON
#BPMCHANGE 83.187
#SCROLL 0.96
2
#BPMCHANGE 77.206
#SCROLL 1.03
2,
#BPMCHANGE 80.964
#SCROLL 0.98
2220,
#BPMCHANGE 80
#SCROLL 1
0,
#BPMCHANGE 79.004
#SCROLL 1.01
0,
#BPMCHANGE 79.66
#SCROLL 1
20002002,
#BPMCHANGE 83.27
#SCROLL 0.96
2,
#BPMCHANGE 88.083
#SCROLL 0.98
000000000000200100201100, //8
#BPMCHANGE 86.358
#SCROLL 1
#GOGOSTART
100100200001100100200000,
#BPMCHANGE 87.662
#SCROLL 0.98
100100200101100200200100,
#BPMCHANGE 86.238
#SCROLL 1
100100200001100100200000,
#BPMCHANGE 87.716
#SCROLL 0.98
100100200101100200200100,
#BPMCHANGE 86.178
#SCROLL 1
100100200001100100200000,
#BPMCHANGE 87.546
#SCROLL 0.98
7008, //14
#GOGOEND
#BPMCHANGE 85.333
#SCROLL 1.01
100100200002002200100000,
#BPMCHANGE 88.106
#SCROLL 0.98
100100200002002200100000,
#BPMCHANGE 86.446
#SCROLL 1
100100200102002200100200,
#BPMCHANGE 87.225
#SCROLL 0.99
100100200102002202100000,
#BPMCHANGE 86.629
100100200002002200100000,
#BPMCHANGE 86.766
100100200002002200100000,
#BPMCHANGE 87.544
#SCROLL 0.98
100100200102002200100200,
#BPMCHANGE 86.405
#SCROLL 1
100100200102002202100102, //22
#BPMCHANGE 87.223
#SCROLL 0.99
100100200002002200100000,
#BPMCHANGE 87.498
#SCROLL 0.98
100100200002002200100000,
#BPMCHANGE 86.27
#SCROLL 1
100100200102002200100200,
#BPMCHANGE 86.313
100100200102002202100102,
#BPMCHANGE 87.223
#SCROLL 0.99
100100200002002200100000,
#BPMCHANGE 87.315
100100200002002200100000,
#BPMCHANGE 87.686
#SCROLL 0.98
100100200102002202100200,
#BPMCHANGE 85.642
#SCROLL 1.01
500000000000000000000000000008000000300000300000,
#BPMCHANGE 87.546
#SCROLL 0.98
600000000000000000000000000008000000000000000000, //31
#BPMCHANGE 85.909
#SCROLL 1
#GOGOSTART
100100200102102100200100,
#BPMCHANGE 86.268
100100200102102100200201,
#BPMCHANGE 85.377
#SCROLL 1.01
100101200201100101200200,
#BPMCHANGE 85.954
#SCROLL 1
100000100000200000500000000000000008000000000000,
#BPMCHANGE 85.687
100100200102102100200100,
#BPMCHANGE 86.088
100100200102102100200201,
#BPMCHANGE 85.998
100101200201100101200200,
#BPMCHANGE 86.948
#SCROLL 0.99
500000000000000000000008000000000000000000000000, //39
#BPMCHANGE 84.16
#SCROLL 1.02
200101200100200101200100,
#BPMCHANGE 86.539
#SCROLL 1
200101200100200101200200,
#BPMCHANGE 85.731
200101200100200101200100,
#BPMCHANGE 86.313
500000000000000000000008000000000000000000200020,
#BPMCHANGE 85.421
#SCROLL 1.01
100101200202100101200400,
#BPMCHANGE 85.598
300000400000300000400000600000000008000000200020,
#BPMCHANGE 86.584
#SCROLL 0.99
100100200202100100200200,
500000000000000000000000000000000000000008000000,
#GOGOEND
#MEASURE 8/4
0, //48
#END

COURSE:Hard
LEVEL:3
BALLOON:16,11
SCOREINIT:980,5190
SCOREDIFF:323
#START
#BARLINEOFF
#SCROLL 1.01
0,
#BARLINEON
#BPMCHANGE 83.187
#SCROLL 0.96
2
#BPMCHANGE 77.206
#SCROLL 1.03
2,
#BPMCHANGE 80.964
#SCROLL 0.98
2220,
#BPMCHANGE 80
#SCROLL 1
0,
#BPMCHANGE 79.004
#SCROLL 1.01
0,
#BPMCHANGE 79.66
#SCROLL 1
20002002,
#BPMCHANGE 83.27
#SCROLL 0.96
2,
#BPMCHANGE 88.083
#SCROLL 0.98
0, //8
#BPMCHANGE 86.358
#SCROLL 1
#GOGOSTART
10201120,
#BPMCHANGE 87.662
#SCROLL 0.98
11201122,
#BPMCHANGE 86.238
#SCROLL 1
10201120,
#BPMCHANGE 87.716
#SCROLL 0.98
100000100000200000000000500000000000000008000000,
#BPMCHANGE 86.178
#SCROLL 1
10201120,
#BPMCHANGE 87.546
#SCROLL 0.98
7008, //14
#GOGOEND
#BPMCHANGE 85.333
#SCROLL 1.01
11101110,
#BPMCHANGE 88.106
#SCROLL 0.98
11101110,
#BPMCHANGE 86.446
#SCROLL 1
11221020,
#BPMCHANGE 87.225
#SCROLL 0.99
1,
#BPMCHANGE 86.629
11101120,
#BPMCHANGE 86.766
11101120,
#BPMCHANGE 87.544
#SCROLL 0.98
12221020,
#BPMCHANGE 86.405
#SCROLL 1
1, //22
#BPMCHANGE 87.223
#SCROLL 0.99
11202110,
#BPMCHANGE 87.498
#SCROLL 0.98
11202110,
#BPMCHANGE 86.27
#SCROLL 1
11221020,
#BPMCHANGE 86.313
1,
#BPMCHANGE 87.223
#SCROLL 0.99
11202110,
#BPMCHANGE 87.315
11202110,
#BPMCHANGE 87.686
#SCROLL 0.98
12221020,
#BPMCHANGE 85.642
#SCROLL 1.01
500000000000000000000000000008000000300000300000,
#BPMCHANGE 87.546
#SCROLL 0.98
600000000000000000000000000008000000000000000000, //31
#BPMCHANGE 85.909
#SCROLL 1
#GOGOSTART
11201120,
#BPMCHANGE 86.268
11211020,
#BPMCHANGE 85.377
#SCROLL 1.01
12211221,
#BPMCHANGE 85.954
#SCROLL 1
100000000000200000500000000000000008000000000000,
#BPMCHANGE 85.687
11201120,
#BPMCHANGE 86.088
11223020,
#BPMCHANGE 85.998
11201121,
#BPMCHANGE 86.948
#SCROLL 0.99
78, //39
#BPMCHANGE 84.16
#SCROLL 1.02
11221020,
#BPMCHANGE 86.539
#SCROLL 1
11201120,
#BPMCHANGE 85.731
11211021,
#BPMCHANGE 86.313
500000000000000000000008000000000000000000000000,
#BPMCHANGE 85.421
#SCROLL 1.01
11221023,
#BPMCHANGE 85.598
300000300000300000300000600000000008000000100000,
#BPMCHANGE 86.584
#SCROLL 0.99
10211121,
500000000000000000000000000000000000000008000000,
#GOGOEND
#MEASURE 8/4
0, //48
#END

COURSE:Normal
LEVEL:3
BALLOON:11,8
SCOREINIT:1130,7810
SCOREDIFF:495
#START
#BARLINEOFF
#SCROLL 1.01
0,
#BARLINEON
#BPMCHANGE 83.187
#SCROLL 0.96
1
#BPMCHANGE 77.206
#SCROLL 1.03
1,
#BPMCHANGE 80.964
#SCROLL 0.98
11,
#BPMCHANGE 80
#SCROLL 1
0,
#BPMCHANGE 79.004
#SCROLL 1.01
0,
#BPMCHANGE 79.66
#SCROLL 1
11,
#BPMCHANGE 83.27
#SCROLL 0.96
1,
#BPMCHANGE 88.083
#SCROLL 0.98
0, //8
#BPMCHANGE 86.358
#SCROLL 1
#GOGOSTART
1111,
#BPMCHANGE 87.662
#SCROLL 0.98
10001110,
#BPMCHANGE 86.238
#SCROLL 1
1111,
#BPMCHANGE 87.716
#SCROLL 0.98
20001110,
#BPMCHANGE 86.178
#SCROLL 1
1111,
#BPMCHANGE 87.546
#SCROLL 0.98
7008, //14
#GOGOEND
#BPMCHANGE 85.333
#SCROLL 1.01
1110,
#BPMCHANGE 88.106
#SCROLL 0.98
1110,
#BPMCHANGE 86.446
#SCROLL 1
10101110,
#BPMCHANGE 87.225
#SCROLL 0.99
2,
#BPMCHANGE 86.629
1110,
#BPMCHANGE 86.766
1110,
#BPMCHANGE 87.544
#SCROLL 0.98
10101110,
#BPMCHANGE 86.405
#SCROLL 1
2, //22
#BPMCHANGE 87.223
#SCROLL 0.99
1110,
#BPMCHANGE 87.498
#SCROLL 0.98
1110,
#BPMCHANGE 86.27
#SCROLL 1
10101110,
#BPMCHANGE 86.313
2,
#BPMCHANGE 87.223
#SCROLL 0.99
1110,
#BPMCHANGE 87.315
1110,
#BPMCHANGE 87.686
#SCROLL 0.98
10100220,
#BPMCHANGE 85.642
#SCROLL 1.01
500000000000000000000008000000000000300000300000,
#BPMCHANGE 87.546
#SCROLL 0.98
600000000000000000000000000008000000000000000000, //31
#BPMCHANGE 85.909
#SCROLL 1
#GOGOSTART
10101110,
#BPMCHANGE 86.268
11102002,
#BPMCHANGE 85.377
#SCROLL 1.01
20022001,
#BPMCHANGE 85.954
#SCROLL 1
100000000000100000500000000000000008000000000000,
#BPMCHANGE 85.687
10101110,
#BPMCHANGE 86.088
11102002,
#BPMCHANGE 85.998
2022,
#BPMCHANGE 86.948
#SCROLL 0.99
78, //39
#BPMCHANGE 84.16
#SCROLL 1.02
10101110,
#BPMCHANGE 86.539
#SCROLL 1
2,
#BPMCHANGE 85.731
10101110,
#BPMCHANGE 86.313
500000000000000000000008000000000000000000200000,
#BPMCHANGE 85.421
#SCROLL 1.01
2220,
#BPMCHANGE 85.598
30303001,
#BPMCHANGE 86.584
#SCROLL 0.99
10011010,
500000000000000000000000000000000000000008000000,
#GOGOEND
#MEASURE 8/4
0, //48
#END

COURSE:Easy
LEVEL:2
BALLOON:8,19,5
SCOREINIT:1090,12110
SCOREDIFF:713
#START
#BARLINEOFF
#SCROLL 1.01
0,
#BARLINEON
#BPMCHANGE 83.187
#SCROLL 0.96
1
#BPMCHANGE 77.206
#SCROLL 1.03
1,
#BPMCHANGE 80.964
#SCROLL 0.98
1,
#BPMCHANGE 80
#SCROLL 1
0,
#BPMCHANGE 79.004
#SCROLL 1.01
0,
#BPMCHANGE 79.66
#SCROLL 1
11,
#BPMCHANGE 83.27
#SCROLL 0.96
1,
#BPMCHANGE 88.083
#SCROLL 0.98
0, //8
#BPMCHANGE 86.358
#SCROLL 1
#GOGOSTART
11,
#BPMCHANGE 87.662
#SCROLL 0.98
1011,
#BPMCHANGE 86.238
#SCROLL 1
11,
#BPMCHANGE 87.716
#SCROLL 0.98
1011,
#BPMCHANGE 86.178
#SCROLL 1
11,
#BPMCHANGE 87.546
#SCROLL 0.98
7008, //14
#GOGOEND
#BPMCHANGE 85.333
#SCROLL 1.01
11,
#BPMCHANGE 88.106
#SCROLL 0.98
11,
#BPMCHANGE 86.446
#SCROLL 1
1110,
#BPMCHANGE 87.225
#SCROLL 0.99
2,
#BPMCHANGE 86.629
11,
#BPMCHANGE 86.766
11,
#BPMCHANGE 87.544
#SCROLL 0.98
1110,
#BPMCHANGE 86.405
#SCROLL 1
2, //22
#BPMCHANGE 87.223
#SCROLL 0.99
11,
#BPMCHANGE 87.498
#SCROLL 0.98
11,
#BPMCHANGE 86.27
#SCROLL 1
1111,
#BPMCHANGE 86.313
1,
#BPMCHANGE 87.223
#SCROLL 0.99
11,
#BPMCHANGE 87.315
11,
#BPMCHANGE 87.686
#SCROLL 0.98
1100,
#BPMCHANGE 85.642
#SCROLL 1.01
7,
#BPMCHANGE 87.546
#SCROLL 0.98
00000800, //31
#BPMCHANGE 85.909
#SCROLL 1
#GOGOSTART
1110,
#BPMCHANGE 86.268
1110,
#BPMCHANGE 85.377
#SCROLL 1.01
22,
#BPMCHANGE 85.954
#SCROLL 1
500000000000000000000000000008000000000000000000,
#BPMCHANGE 85.687
1110,
#BPMCHANGE 86.088
3330,
#BPMCHANGE 85.998
22,
#BPMCHANGE 86.948
#SCROLL 0.99
78, //39
#BPMCHANGE 84.16
#SCROLL 1.02
1111,
#BPMCHANGE 86.539
#SCROLL 1
1,
#BPMCHANGE 85.731
1111,
#BPMCHANGE 86.313
500000000000000000000008000000000000000000000000,
#BPMCHANGE 85.421
#SCROLL 1.01
22,
#BPMCHANGE 85.598
3330,
#BPMCHANGE 86.584
#SCROLL 0.99
1011,
500000000000000000000000000000000000000008000000,
#GOGOEND
#MEASURE 8/4
0, //48
#END
