//TJADB Project
TITLE:Ikazuchi
TITLEJA:怒槌
SUBTITLE:--Takenobu Mitsuyoshi/CHUNITHM
SUBTITLEJA:光吉猛修 「CHUNITHM」より
BPM:200
WAVE:Ikazuchi.ogg
OFFSET:-1.300
DEMOSTART:10.893

COURSE:Oni
LEVEL:10
BALLOON:6,6,4,14,2,2,6
SCOREINIT:310
SCOREDIFF:65
#START
1010102101101011,
1010101101101011,
1010102101100000,
11411400,
1010102101102011,
1110101101101011,
1010102101102011,
500000000008000000000000700000000000000000800000,//8
#GOGOSTART
1111111111111111,
2222222222222222,//10
#GOGOEND
1010200011102012,
100000100000200200000000500008000000200000200000,//12
#GOGOSTART
1111111111111111,
2222222211112222,//14
#GOGOEND
1010200011102012,
100000100000200200000000700000000000000008000000,//16
#GOGOSTART
1111221122221122,
1111221111221122,//18
#GOGOEND
1010200011112011,
100000100000200200000000500008000000100000100000,//20
#GOGOSTART
2222112211112211,
2211112211221222,//22
#GOGOEND
1010200011112011,
1010220012121212,
11001000,
2000000022201020,
11001000,
2000000011102000,
11001000,
2000001022201020,
11001000,
2000000022112222,
1010201111102010,
1010201022112020,
1010201111102010,
1010201011112020,
1111201022112020,
1111201022112020,
1011221010112210,
1122112211221122,
500008000000500008000000600008000000600008000000,//41
#GOGOSTART
1111111111111111,
2222222222222222,//43
#GOGOEND
1010200011112011,
100000100000200200000000500008000000200000200000,//45
#GOGOSTART
1111111111111111,
2222222211112222,//47
#GOGOEND
1010200011112011,
100000100000200200000000500008000000200000200000,//49
#GOGOSTART
1111221122221122,
1111221111221122,//51
#GOGOEND
1010200011112012,
100000100000200200000000500008000000100000100000,//53
#GOGOSTART
2222112211112211,
2211112211221222,//55
#GOGOEND
1010200011112011,
1010220070000080,
#BPMCHANGE 196.9
#SCROLL 1.01
11010101,
#BPMCHANGE 200
#SCROLL 1
2010001000101111,
1010001000101111,
2010001000101111,
2222202010002000,
2222201022222000,
2222200022002000,
2022200022220000,
2220202020002000,
32,
22,
12,
70000008,
1001//71-1
#GOGOSTART
2000,//71-2
#GOGOEND
10000011//72-1
#GOGOSTART
20000000,//72-2
#GOGOEND
10000010//73-1
#GOGOSTART
20000000,//73-2
#GOGOEND
#BPMCHANGE 203.19
#SCROLL 0.99
22222222,
#BPMCHANGE 200
#SCROLL 1
10201120,
10201120,
10201120,
10201120,
11211121,
11211121,
12121212,
120120120120,
1111100012102011,
1011000011102020,
1111200022102011,
1021000012102020,
1122200022102012,
1021000022102020,
3011000022202020,
3003000011112222,
7080400022112211,
1122111122112222,
1011221120221122,
1022201122112000,
1212101021212020,
1212121021212120,
100211100221100222100222,
2020222220227080,//98
#GOGOSTART
2211221122112211,
2221112211122211,
2211221122112211,
#MEASURE 6/4
200200100100100100200200100100100100200200200200//102-1
#GOGOEND
500000000000000008000000,//102-2
#MEASURE 4/4
#GOGOSTART
1122112211221122,
1112221122221111,
2222222222222222,
11102020202020201110202020202020,
1010111120202222,
1010211120201222,
1010111120202222,
1010211120201222,
1011202110112021,
1012202210122022,
1111222211112222,
#MEASURE 6/4
1122112211221122//114-1
#GOGOEND
70000080,//114-2
#MEASURE 4/4
#GOGOSTART
1111101111111011,
#BARLINEOFF
100100100100100010001000100010001000100100100100,
101010101010110110110110,
#MEASURE 5/8
200000100200001000001000001000,
200000100200001000001000001000,
#MEASURE 4/4
200000100200
#BPMCHANGE 100
000000000000000000000000000000000000,//120
#MEASURE 4/4
#SCROLL 0.75
#GOGOEND
#BARLINEON
3,
#END

COURSE:Hard
LEVEL:8
BALLOON:3,3,4,9,30,2,4
SCOREINIT:340
SCOREDIFF:70
#START
10110120,
1010101000100011,
10110100,
30430400,
10110120,
1110101000100011,
10110120,
500000000008000000000000700000000000800000000000,//8
#GOGOSTART
1110101010101010,
2220202020202020,//10
#GOGOEND
1000200011102000,
100000100000200200000000500008000000200000000000,//12
#GOGOSTART
1110101010101010,
2220202010102020,//14
#GOGOEND
1000200011102000,
1010220070008000,//16
#GOGOSTART
1010202011101110,
2020101022202220,//18
#GOGOEND
1000200011102000,
100000100000200200000000500008000000100000000000,//20
#GOGOSTART
2020101022202220,
1010202011102220,//22
#GOGOEND
1000200011102000,
1010220070008000,
11001000,
20002222,
11001000,
20001120,
11001000,
20002222,
11001000,
2000000022202000,
1010101110102000,
1010101011102000,
1010101110102000,
1010101011102000,
1110100011102000,
1110100011102000,
11221122,
1011101010111010,
500008000000500008000000600008000000600008000000,//41
#GOGOSTART
1110101010101010,
2220202020202020,//43
#GOGOEND
1000200011102000,
100000100000200200000000500008000000200000000000,//45
#GOGOSTART
1110101010101010,
2220202010102020,//47
#GOGOEND
1000200011102000,
100000100000200200000000500008000000200000000000,//49
#GOGOSTART
1010202011101110,
2020101022202220,//51
#GOGOEND
1000200011102000,
100000100000200200000000500008000000100000000000,//53
#GOGOSTART
2020101022202220,
1010202011102220,//55
#GOGOEND
1000200011102000,
7008,
10010101,
01010110,
10010101,
01010110,
10010101,
01102000,
7,
,
08,
32,
22,
22,
2,
2//71-1
#GOGOSTART
3,//71-2
#GOGOEND
2//72-1
#GOGOSTART
3,//72-2
#GOGOEND
2//73-1
#GOGOSTART
3,//73-2
#GOGOEND
22202020,
10101110,
10101120,
10101110,
10101120,
11101110,
11101120,
12121212,
3333,
1110100011102010,
1011000010111000,
1110100011102020,
1011000020111000,
1110100011102020,
1022000020222000,
3011000022202020,
3003000010102020,
7080400022202000,
2220202011102000,
1011101020222020,
500000000000000000000000000000000008000000000000,
1110101110102000,
1110102220202000,
1011101110222022,
500000000000000000000000000000000000000008000000,//98
#GOGOSTART
2220200022202000,
2220101011102000,
2220200022202000,
#MEASURE 6/4
200200200000200000100100100000100000200000000000//102-1
#GOGOEND
500000000000000008000000,//102-2
#MEASURE 4/4
#GOGOSTART
1110101011102000,
1110202011102000,
2220202022202020,
#BPMCHANGE 133.33
#SCROLL 1.5
1022
#BPMCHANGE 266.67
#SCROLL 0.75
20002000
#BPMCHANGE 133.33
#SCROLL 1.5
1022
#BPMCHANGE 266.67
#SCROLL 0.75
20000000,
#BPMCHANGE 200
#SCROLL 1
1110100022202000,
1110100022202000,
1110100022202000,
1110100022202000,
1110101011102000,
1110101011102000,
33443344,
#MEASURE 6/4
1110111022202220//114-1
#GOGOEND
70000080,//114-2
#MEASURE 4/4
#GOGOSTART
1011101010111010,
#BARLINEOFF
100000100100100000001000100010001000100010001000,
100010101010100100100100,
#MEASURE 5/8
400000000400000000001000000000,
400000000400000000001000000000,
#MEASURE 4/4
4004
#BPMCHANGE 100
000000000000,//120
#MEASURE 4/4
#SCROLL 0.75
#GOGOEND
#BARLINEON
3,
#END

COURSE:Normal
LEVEL:7
BALLOON:2,2,2,2,2,5,18,7,3
#START
10010100,
10010101,
10010100,
70870800,
10201022,
10111000,
10201120,
500000000008000000000000700000000000800000000000,//8
#GOGOSTART
11111111,
22222222,//10
#GOGOEND
10201022,
100000000000200000000000500000000008000000000000,//12
#GOGOSTART
11111111,
22221122,//14
#GOGOEND
10201022,
1278,//16
#GOGOSTART
11112222,
11112222,//18
#GOGOEND
10201022,
100000000000200000000000500000000008000000000000,//20
#GOGOSTART
22221111,
22221111,//22
#GOGOEND
10201022,
1240,
31,
2022,
31,
2012,
31,
2022,
31,
2012,
10101011,
1144,
10101011,
1144,
10101022,
10101022,
1212,
11101111,
,//41
#GOGOSTART
11111111,
22222222,//43
#GOGOEND
10201022,
100000000000200000000000500000000008000000000000,//45
#GOGOSTART
11111111,
22221122,//47
#GOGOEND
10201022,
1278,//49
#GOGOSTART
11112222,
11112222,//51
#GOGOEND
10201022,
100000000000200000000000500000000008000000000000,//53
#GOGOSTART
22221111,
22221111,//55
#GOGOEND
10201022,
70000008,
1,
2,
2,
2,
1,
2,
7,
,
08,
32,
22,
22,
7,
800000000000000000000000//71-1
#GOGOSTART
600000000000000000000008,//71-2
#GOGOEND
000000000000000000000000//72-1
#GOGOSTART
600000000000000000000008,//72-2
#GOGOEND
000000000000000000000000//73-1
#GOGOSTART
600000000000000000000008,//73-2
#GOGOEND
,
1112,
10101110,
1112,
10101110,
10201110,
10201110,
11101110,
3333,
11101010,
2002000000102000,
11101010,
2002000000102000,
11101010,
2002000000102000,
3003000010101010,
4004000010102020,
00402222,
11101111,
20112010,
500000000000000000000000000000000008000000000000,
11102220,
11102220,
11112220,
600000000000000000000000000000000008000000000000,//98
#GOGOSTART
22222220,
22111110,
22222220,
#MEASURE 6/4
200000200000100000100000100000100000200000000000//102-1
#GOGOEND
500000000000000008000000,//102-2
#MEASURE 4/4
#GOGOSTART
11111120,
11221120,
22222222,
#BPMCHANGE 133.33
#SCROLL 1.5
1
#BPMCHANGE 266.67
#SCROLL 0.75
22
#BPMCHANGE 133.33
#SCROLL 1.5
1
#BPMCHANGE 266.67
#SCROLL 0.75
22,
#BPMCHANGE 200
#SCROLL 1
10101110,
20202220,
10101110,
20202220,
11102220,
11102220,
11221122,
#MEASURE 6/4
12121212//114-1
#GOGOEND
7008,//114-2
#MEASURE 4/4
#GOGOSTART
33303330,
#BARLINEOFF
300300300030003000600000,
000000000000000000000000000000000000000008000000,
#MEASURE 5/8
4004000000,
4004000000,
#MEASURE 4/4
4004
#BPMCHANGE 100
000000000000,//120
#MEASURE 4/4
#SCROLL 0.75
#GOGOEND
#BARLINEON
3,
#END

COURSE:Easy
LEVEL:5
BALLOON:4,15,3
#START
,
,
,
,
1210,
1110,
1210,
3,//8
#GOGOSTART
6,
000000000000000000000000000008000000000000000000,//10
#GOGOEND
1210,
1120,//12
#GOGOSTART
6,
000000000000000000000000000008000000000000000000,//14
#GOGOEND
1210,
1120,//16
#GOGOSTART
1111,
2222,//18
#GOGOEND
1012,
12,//20
#GOGOSTART
2222,
1111,//22
#GOGOEND
1012,
14,
31,
1022,
31,
1022,
31,
1022,
31,
1022,
1210,
1120,
1210,
1120,
1022,
1022,
33,
3333,
,//41
#GOGOSTART
6,
000000000000000000000000000008000000000000000000,//43
#GOGOEND
1210,
1120,//45
#GOGOSTART
6,
000000000000000000000000000008000000000000000000,//47
#GOGOEND
1210,
1120,//49
#GOGOSTART
1111,
2222,//51
#GOGOEND
1012,
12,//53
#GOGOSTART
2211,
2211,//55
#GOGOEND
1012,
7008,
1,
1,
1,
1,
1,
1,
7,
,
08,
31,
11,
22,
500000000000000000000000000000000000000000000008,
000000000000000000000000//71-1
#GOGOSTART
600000000000000000000008,//71-2
#GOGOEND
000000000000000000000000//72-1
#GOGOSTART
600000000000000000000008,//72-2
#GOGOEND
000000000000000000000000//73-1
#GOGOSTART
600000000000000000000008,//73-2
#GOGOEND
,
1110,
1110,
1110,
1110,
1210,
1210,
1111,
4,
1101,
2200,
1101,
2200,
1101,
2200,
3003000000000000,
4004000070000000,
8411,
1120,
34,
500000000000000000000000000008000000000000000000,
1110,
2220,
1122,
600000000000000000000000000008000000000000000000,//98
#GOGOSTART
2222,
2110,
2222,
#MEASURE 6/4
2011//102-1
#GOGOEND
30,//102-2
#MEASURE 4/4
#GOGOSTART
1111,
1220,
2222,
#BPMCHANGE 133.33
#SCROLL 1.5
1
#BPMCHANGE 266.67
#SCROLL 0.75
40
#BPMCHANGE 133.33
#SCROLL 1.5
1
#BPMCHANGE 266.67
#SCROLL 0.75
40,
#BPMCHANGE 200
#SCROLL 1
33,
44,
33,
44,
3344,
3344,
1212,
#MEASURE 6/4
600000000000000000000000000000000000000000000008//114-1
#GOGOEND
000000000000000000000000,//114-2
#MEASURE 4/4
#GOGOSTART
30030003,
#BARLINEOFF
0600,
000000000000000000000000000008000000000000000000,
#MEASURE 5/8
4004000000,
4004000000,
#MEASURE 4/4
4004
#BPMCHANGE 100
000000000000,//120
#MEASURE 4/4
#SCROLL 0.75
#GOGOEND
#BARLINEON
3,
#END
