//TJADB Project
TITLE:Scarlet Lance
TITLEJA:Scarlet Lance
SUBTITLE:--MASAKI (ZUNTATA)/GROOVE COASTER
SUBTITLEJA:MASAKI(ZUNTATA)「グルーヴコースター」より
BPM:185
WAVE:Scarlet Lance.ogg
OFFSET:-1.458
DEMOSTART:9.241

COURSE:Oni
LEVEL:10
BALLOON:2
SCOREINIT:360
SCOREDIFF:83
#START
100212,
200000001000000010000000200000100200000200100000,
30210120,
2010001020202211,
11111111,
100100100100100100100100101010100000400000000000,//6
#GOGOSTART
2112012021120120,
2112012210102010,//8
#GOGOEND
3011211120120210,
2011221120120210,
1011211220221121,
1021102101021020,//12
#GOGOSTART
2112112021121120,
2112112210102010,//14
#GOGOEND
3011211120120210,
2012221110221000,
300000200100100100200200100000001000200010000000,
100000001000200010000000100000200200000200200000,
300000200100100200200200100000002000100020000000,
100000002000100020000000100000200200000200200000,
300000200100100100200200100000001000200010000000,
100000001000200010000000100000200100000100200000,
300000200100100100100200100000002000100020000000,
500000000000000000000000000000000000000008000000,
100000000100200000100200100020002000100020002000,
100200200100200200100200500000000000000008000000,
10112210,
11221212,
10112210,
30210140,//30
#GOGOSTART
2211202211221120,
2212202212221220,
2211221211221220,
2211221222111222,//34
#GOGOEND
10112210,
11221212,
10112210,
30210140,//38
#GOGOSTART
2211202211221120,
2211221211221220,
2212221211221112,
2211221222111222,
500000000000000000000000000000000000000008000000,
121212121212121212100000,//44
#GOGOEND
22122122,
12212020,
121212122122,
212122122120,//48
#GOGOSTART
101010100000100000400000//49-1
#GOGOEND
000000100000200200100000,//49-2
#GOGOSTART
101010100000100000400000//50-1
#GOGOEND
000000100000200200100000,//50-2
#GOGOSTART
101010100100100000400000//51-1
#GOGOEND
000000100000200000200000,//51-2
#GOGOSTART
3003003040040040,//52
#GOGOEND
300000000222100000221100,
000211100000111100000100,
300000000112200000122100,
000221100000211100000100,
30022022,
02202021,
41121122,
21121122,
41121122,
21121122,
2111111111111111,
1111111111204000,//64
#GOGOSTART
2112112021121120,
2112112210102010,//66
#GOGOEND
3011211120120210,
2011221120120210,
1011211220221121,
1021102101021020,//70
#GOGOSTART
2112112221121122,
2112112210102010,//72
#GOGOEND
3011211120120210,
2012221112221000,
300000200100100100200200100000001000200010000000,
100000001000200010000000100000200200000200200000,//76
#GOGOSTART
100111100100111100100111,
100100111100100111200000,//78
#GOGOEND
300000200100100200200200100000002000100020000000,
100000002000100020000000100000200200000200100000,//80
#GOGOSTART
200111100200111100200111,
100200111100200111200000,//82
#GOGOEND
300000200100100100200200100020001000200010001000,
100020001000200010000000100000100200000200100000,//84
#GOGOSTART
100222200100222200100222,
200100222200100222100000,//86
#GOGOEND
300000200100100200200200100010002000100020002000,
100010002000100020002000100200200100000200100000,
2112112021121120,
2112112220101010,//90
#GOGOSTART
2112112221121122,
2112112221111121,
2112112121121121,
2112112120101020,//94
#SCROLL 2
#GOGOEND
78
#SCROLL 4
500000,
#BARLINEOFF
000000000000000000000000000000000000000000000008,
#END

COURSE:Hard
LEVEL:8
BALLOON:7,7,7,13,23,4,4,4
SCOREINIT:380
SCOREDIFF:90
#START
,
,
30210210,
2010002010002220,
11111111,
500000000000000000000000000008000000400000000000,//6
#GOGOSTART
3001001030010010,
3001001010102010,//8
#GOGOEND
3000111020020020,
1000111020020020,
1000111110102020,
500000000000000000000000000000000008000000000000,//12
#GOGOSTART
3001001030010010,
3001001010102010,//14
#GOGOEND
3000112020020020,
1000112020001000,
300000000000100100100000300000003000000030000000,
444700,
800000000000100100100000400000004000000040000000,
333700,
800000000000100100100000300000003000000030000000,
444700,
800000000000100100100000400000004000000040000000,
7,
8,
,
01111000,
11220202,
00112200,
40220140,//30
#GOGOSTART
1010201110102011,
1010201110102011,
1010201110102011,
1010201110102020,//34
#GOGOEND
7,
,
80112200,
40220140,//38
#GOGOSTART
1010201110102011,
1010201110102011,
1010201110102011,
1010201110102020,
5,
000000000000000000000000000000000008000000000000,//44
#GOGOEND
11022011,
02202020,
111222,
111222,//48
#GOGOSTART
30001040//49-1
#GOGOEND
00101110,//49-2
#GOGOSTART
30001040//50-1
#GOGOEND
00101110,//50-2
#GOGOSTART
3014//51-1
#GOGOEND
0122,//51-2
#GOGOSTART
3003003040040040,//52
#GOGOEND
3,
00000001,
3,
00000001,
30022022,
02202020,
30111111,
30111111,
30111111,
30111111,
6,
000000000000000000000000000008000000400000000000,//64
#GOGOSTART
3001001030010010,
3001001010102010,//66
#GOGOEND
3000111020020020,
1000111020020020,
1000111110202020,
500000000000000000000000000000000008000000000000,//70
#GOGOSTART
3001001030010010,
3001001010102010,//72
#GOGOEND
3000112020020020,
1000112020001000,
300000000000100100100000300000003000000030000000,
400040004000700000000800,//76
#GOGOSTART
1011101011101011,
1010111030004000,//78
#GOGOEND
300000000000100100100000400000004000000040000000,
300030004000700000000800,//80
#GOGOSTART
2011102011102011,
1020111040003000,//82
#GOGOEND
300000000000100100100000300000003000000030000000,
400040003000700000000800,//84
#GOGOSTART
1022201022201022,
2010222030004000,//86
#GOGOEND
300000000000100100100000300000003000000030000000,
444600,
,
000000000000000000000000000000000008000000000000,//90
#GOGOSTART
3001001030010010,
3001001010102010,
3003003030030030,
3003003010202010,//94
#GOGOEND
40
#SCROLL 1.5
500000,
#BARLINEOFF
000000000000000000000000000000000000000000000008,
#END

COURSE:Normal
LEVEL:7
BALLOON:5,5,5,9,16
#START
,
,
30110110,
11011020,
11111111,
500000000000000000000000000008000000000000000000,//6
#GOGOSTART
1001001010010010,
1001010100020000,//8
#GOGOEND
30111020,
10111020,
10111110,
500000000000000000000000000000000008000000000000,//12
#GOGOSTART
1001001010010010,
1001001010002000,//14
#GOGOEND
30222020,
10111020,
300111,
111700,
800111,
111700,
800111,
111700,
800111,
7008,
,
,
00111100,
11220202,
00112200,
40220120,//30
#GOGOSTART
10201120,
10201120,
10201120,
10201120,//34
#GOGOEND
7,
08,
00112200,
40220120,//38
#GOGOSTART
10201120,
10201120,
10201120,
10201120,
5,
000000000000000000000000000000000008000000000000,//44
#GOGOEND
11011011,
01102020,
111111,
222222,//48
#GOGOSTART
3014//49-1
#GOGOEND
0000,//49-2
#GOGOSTART
3014//50-1
#GOGOEND
0000,//50-2
#GOGOSTART
3014//51-1
#GOGOEND
0222,//51-2
#GOGOSTART
3003003030030030,//52
#GOGOEND
3,
,
3,
,
3,
,
30111111,
30111111,
30111111,
30111111,
6,
000000000000000000000000000008000000000000000000,//64
#GOGOSTART
1001001010010010,
100101010002000,//66
#GOGOEND
30111020,
10111020,
10111110,
500000000000000000000000000000000008000000000000,//70
#GOGOSTART
1001001010010010,
1001001010002000,//72
#GOGOEND
30222020,
10111020,
300111,
100000001000000010000000500000000008000000000000,//76
#GOGOSTART
10110110,
11011020,//78
#GOGOEND
300111,
100000001000000010000000500000000008000000000000,//80
#GOGOSTART
10110110,
11011020,//82
#GOGOEND
300111,
200000002000000020000000500000000008000000000000,//84
#GOGOSTART
10120120,
12012010,//86
#GOGOEND
300333,
444300,
6,
000000000000000000000000000000000008000000000000,//90
#GOGOSTART
3001001030010010,
3001001010002000,
3003003030030030,
3003003010002000,//94
#GOGOEND
00
#SCROLL 1.5
500000,
#BARLINEOFF
000000000000000000000000000000000000000000000008,
#END

COURSE:Easy
LEVEL:5
BALLOON:12,11,13
#START
,
,
,
,
7,
08,//6
#GOGOSTART
1001000010010000,
1001000010000000,//8
#GOGOEND
3012,
1012,
10001110,
500000000000000000000000000008000000000000000000,//12
#GOGOSTART
1001000010010000,
1001000010000000,//14
#GOGOEND
3022,
1012,
33,
3011,
33,
3011,
33,
3011,
37,
,
8,
,
0110,
10100202,
0110,
4,//30
#GOGOSTART
1212,
1212,
1212,
1212,//34
#GOGOEND
7,
08,
,
4,//38
#GOGOSTART
1212,
1212,
1212,
1212,
5,
000000000000000000000000000008000000000000000000,//44
#GOGOEND
11011011,
01101000,
11,
22,//48
#GOGOSTART
3004//49-1
#GOGOEND
0000,//49-2
#GOGOSTART
3004//50-1
#GOGOEND
0000,//50-2
#GOGOSTART
3004//51-1
#GOGOEND
0000,//51-2
#GOGOSTART
33,//52
#GOGOEND
3,
,
3,
,
3,
,
3111,
3111,
30101110,
30101110,
6,
000000000000000000000000000008000000000000000000,//64
#GOGOSTART
1001000010010000,
1001000010000000,//66
#GOGOEND
3012,
1012,
10001110,
500000000000000000000000000008000000000000000000,//70
#GOGOSTART
1001000010010000,
1001000010000000,//72
#GOGOEND
3022,
1012,
33,
3011,//76
#GOGOSTART
30030030,
03003040,//78
#GOGOEND
33,
3011,//80
#GOGOSTART
30030030,
03003040,//82
#GOGOEND
33,
3011,//84
#GOGOSTART
40040040,
04004040,//86
#GOGOEND
33,
44,
6,
000000000000000000000000000008000000000000000000,//90
#GOGOSTART
3003000030030000,
3003000030000000,
3003000030030000,
3003000030000000,//94
#GOGOEND
00
#SCROLL 1.5
500000,
#BARLINEOFF
000000000000000000000000000000000000000000000008,
#END
