//TJADB Project
TITLE:Kaichuu Teien o Motsu Shoujo
TITLEJA:懐中庭園を持つ少女
SUBTITLE:--Harunaba feat. Chihiro Ishiguro
SUBTITLEJA:はるなば feat. 石黒千尋
BPM:154
WAVE:Kaichuu Teien o Motsu Shoujo.ogg
OFFSET:-1.735
DEMOSTART:76.532 //shinuchi:
4310/3270/1880/1110

COURSE:Oni
LEVEL:10
BALLOON:9,10,9,18,22,11
SCOREINIT:430,1200
SCOREDIFF:100
#START
2,
22,
22,
#BPMCHANGE 308
2020202020002222,
2000200022222020, //5
30011001,
21012110,
21102120,
21012101,
40011001,
21012110,
21102120,
21112111,
40012001,
21012111,
21112121,
21012111,
40012111,
21112121,
21112111,
7008, //21
3,
0,
30002022,
100111200100,
3021,
20012010,
20102021,
13,
3,
000000000122,
1021,
20102110,
3021,
20014010,
400000101010202000200200,
12021004, //37
00211122,
12121121,
00211212,
11221121,
20211122,
12121101,
20112022,
10112022,
30002211,
11211111,
40221122,
102020100200102020100200,
30002011,
21212210,
400100111211,
211211200000, //53
30002021,
11211121,
30002021,
01201120,
30201021,
01201120,
4012,
700000000000000000000000000000000000000008000000,
10100101,
0111,
01010010,
10100101,
10100101,
0111,
01010010,
11211211, //69
21011112,
11211120,
11122001,
20111220,
20102101,
20112010,
21111212,
7008, //77
#GOGOSTART
10211121,
0010201010112020,
11211121,
0010201011102020,
10211121,
0010201010112020,
11211121,
0010201011102010,
2010201011102010,
0010201011102010,
2010201011102010,
01212120,
1010222010102220,
1110201110201020,
7,
0008, //93
10211121,
1010201010112020,
101010200100100100200100,
0010201011102020,
10211121,
0010201010112020,
11211121,
000100200100101010200000,
101010200000100000200100,
0010201011102010,
2010201011102010,
01212120,
1010222010102220,
1110201110207000,
0,
000000000000000000000000000000000000000000080000, //109
#GOGOEND
10201121,
10201120,
10201021,
01202020,
3003,
03,
3006,
000000000000000000000000000000000008000000000000,
10201021,
01201122,
11201022,
01201111,
20112010,
21112011,
21112070,
0008,
1110111020111011,
1000111011101110, //127
40012222,
100100100100100000000000200000002000000020000000,
3000202010102222,
20112222,
30221112,
1111102010102000,
2020202010102222,
200100100200202020101010, //135
#GOGOSTART
2010101020101011,
2010101020102210,
2010101020101011,
2010101022102210,
2010101020101011,
2010101022102210,
#GOGOEND
4,
0,
0,
0,
0,
0,
0, //148
#END

COURSE:Hard
LEVEL:8
BALLOON:5,12,7,15,16,8
SCOREINIT:560,2080
SCOREDIFF:135
#START
2,
22,
22,
#BPMCHANGE 308
22202022,
20202220, //5
30011001,
11002010,
2121,
10002200,
30011001,
11002010,
2121,
10002200,
30011001,
11002010,
2121,
10002200,
30011001,
11002010,
2121,
700000000000000000000000000000080000000000000000, //21
3,
0,
30002220,
10012010,
3021,
20012010,
20012020,
13,
3,
00000011,
1021,
20012010,
3021,
20012010,
7,
00008003, //37
05,
000000000000000008000000100000000000200000100000,
05,
000000000000000000000000000008000000200000000000,
25,
000000000000000008000000100000100000000000400000,
0,
0,
30001110,
11101110,
40002220,
22202220,
3021,
22201000,
47,
000000000000000008000000100000000000000000000000, //53
30002011,
01101110,
30002011,
01101020,
30201011,
01102010,
4,
0,
10101101,
0,
11010010,
1,
10101101,
0,
11010010,
500000000000000000000000000000000008000000000000, //69
11001102,
0202,
10022000,
20102200,
22,
2121,
5,
000000000000000000000000000008000000000000000000, //77
#GOGOSTART
10201021,
01201020,
10201021,
01202020,
10201021,
01201020,
10201021,
01202020,
10201021,
01201020,
10201021,
01202020,
22202220,
11101110,
7,
0008, //93
10201021,
01201020,
10201021,
01202020,
10201021,
01201020,
10201021,
01202020,
10201021,
01202020,
1212,
10210020,
22202220,
11101170,
0,
0008, //109
#GOGOEND
20000022,
2002,
20202022,
0222,
3003,
03,
3006,
000000000000000000000000000000000008000000000000,
20202022,
02202020,
2002,
02,
2121,
2121,
20112070,
0008,
10100101,
0111, //127
40001110,
11101110,
10002220,
22202220,
10001110,
11101110,
22201110,
22201110, //135
#GOGOSTART
11101110,
11111110,
11101110,
11111110,
22222220,
11111110,
#GOGOEND
4,
0,
0,
0,
0,
0,
0, //148
#END

COURSE:Normal
LEVEL:7
BALLOON:4,8,6,6,9,11,7,8
SCOREINIT:770,3700
SCOREDIFF:208
#START
2,
22,
22,
#BPMCHANGE 308
22,
2220, //5
31,
12,
22,
12,
31,
12,
22,
12,
31,
1120,
12,
1120,
31,
1120,
12,
700000000000000000000000000000080000000000000000, //21
3,
0,
3022,
11,
3022,
11,
1022,
13,
3,
0001,
1022,
11,
1022,
12,
7,
00008003, //37
05,
000000000008000000000000100000000000000000100000,
05,
000000000000000000000008000000000000200000000000,
25,
000000000008000000000000100000000000000000400000,
0,
0,
11,
10010010,
22,
20020020,
11,
10010010,
40050000,
000000000008000000000000100000000000000000000000, //53
31,
10010010,
22,
20020020,
11,
10010010,
4,
0,
10000001,
0101,
7,
8111,
1,
10010010,
1001,
500000000000000000000000000000000008000000000000, //69
2,
20020020,
7,
8111,
11,
22,
5,
000000000000000000000000000008000000000000000000, //77
#GOGOSTART
1101,
0111,
0101,
0111,
0101,
0111,
0101,
0111,
0101,
0111,
0101,
0111,
1011,
10010010,
7,
08, //93
1101,
0111,
0101,
0111,
0101,
0111,
0101,
0111,
0202,
0222,
0202,
0222,
0202,
0107,
0,
0008, //109
#GOGOEND
2002,
2002,
2222,
0222,
3003,
03,
3006,
000000000000000000000000000000000008000000000000,
2220,
2222,
2002,
02,
1011,
0220,
1009,
0000000000090000,
8,
0, //127
11,
10010010,
22,
20020020,
11,
10010010,
7,
08, //135
#GOGOSTART
11,
10010010,
22,
20020020,
11,
10010010,
#GOGOEND
4,
0,
0,
0,
0,
0,
0, //148
#END

COURSE:Easy
LEVEL:5
BALLOON:3,7,5,5,14,9,6,7
SCOREINIT:540,4990
SCOREDIFF:145
#START
2,
22,
22,
#BPMCHANGE 308
22,
2, //5
31,
1,
22,
1,
31,
1,
22,
1,
31,
12,
12,
1,
31,
12,
12,
700000000000000000000000000000080000000000000000, //21
3,
0,
32,
11,
3,
11,
12,
13,
3,
0,
12,
11,
11,
12,
7,
08, //37
0,
00001001,
0,
0002,
2,
00002004,
0,
0,
11,
1,
22,
2,
11,
1,
5,
000000000000000000000008000000000000000000000000, //53
31,
1,
42,
2,
31,
1,
4,
0,
10000001,
0101,
7,
8,
1,
10010010,
5,
000000000000000000000000000008000000000000000000, //69
2,
20020020,
7,
8,
11,
22,
5,
000000000000000000000000000008000000000000000000,//77
#GOGOSTART
1101,
0101,
0101,
0111,
0101,
0101,
0101,
0111,
0101,
0101,
0101,
0111,
9,
0,
0900,
8, //93
1101,
0101,
0101,
0111,
0101,
0101,
0101,
0111,
0202,
0202,
0202,
0222,
0202,
0207,
0,
0008, //109
#GOGOEND
2,
2,
22,
2220,
3003,
03,
3006,
000000000000000000000000000000000008000000000000,
22,
2220,
2002,
02,
1001,
02,
1009,
0000000000090000,
8,
0, //127
11,
1,
22,
2,
11,
1,
7,
08, //135
#GOGOSTART
11,
10010000,
22,
20020000,
11,
10010000,
#GOGOEND
4,
0,
0,
0,
0,
0,
0, //148
#END
