//TJADB Project
TITLE:Brand New Theater!
TITLEJA:Brand New Theater!
SUBTITLE:--Takafumi Sato feat. Haruka Yamazaki/THE iDOLM@STER Million Live! Theater Days
SUBTITLEJA:「アイドルマスター ミリオンライブ!」より
BPM:177
WAVE:Brand New Theater!.ogg
OFFSET:-1.904
DEMOSTART:58.330 //shinuchi:
4710/3640/2190/1250

COURSE:Oni
LEVEL:8
BALLOON:12,12,12,12,12
SCOREINIT:390,1350
SCOREDIFF:95
#START
1,
1000001110000000,
10111111,
3011200020112011,
1010201111202022,
2210201222112000, //6
#SCROLL 1.5
#GOGOSTART
700000000000000000000000000000000000080000000000,
#SCROLL 1
1010201000102011,
1000201210202010,
0022201000102022,
1111201111202010,
4000400010221011,
2010102010102012,
1010101010101022, //14
#GOGOEND
10121010,
10121010,
20121010,
4000304030111000,
10121010,
1000102010221000,
10111111,
3000000000112000, //22
10201120,
1000201110102000,
10201120,
1010201220201022,
10211120,
1010201010102022,
1111202211112020,
33030211, //30
10212021,
12012122,
1000201020221122,
1022201010102210,
2011201020102210,
2011201020102210,
2011201020102210,
1010201020112010, //38
#GOGOSTART
100100100100100000200200200200200000500000000008,
0011122011222011,
2211221122112210,
#GOGOEND
400000100100200000500000000000000008000000000000, //42
#GOGOSTART
1111200010221020,
1022102011201000,
1111200011112000,
1120102012202010,
4000403000222020,
3000403000202210,
21302130,
1111201000112222, //50
1111200010221020,
1022102011201000,
1111200011112000,
1120102012202010,
4000403000222020,
3000403000202210,
2211200022112000,
1010201222112211, //58
2000201020112011,
2000201020112010,
2011201020111120,
11220700,
000000000000000000080000000000700000000000000000,
000000000000000000080000000000000000100000200000,
12211221,
1122101122112000, //66
600000000000000000000000000000000000000008000000,
1010201000102011,
1010201210202010,
0022201000102022,
1111201111202010,
4000400010201011,
2010202010102012,
1010101010101022, //74
#GOGOEND
1022202010002000,
1022202010002000,
2022202020002000,
2022202020002020,
1022102010221020,
1010101000112010,
2211200022112000,
1010201022112211, //82
#GOGOSTART
2000201020112010,
2000201020122011,
2012201120122011,
11220700,
000000000000000000080000000000700000000000000000,
000000000000000000080000000000000000100000200000,
12211221,
1122101122112011, //90
2020202020221110,
4011200011122000,
#GOGOEND
3,
0,
0,
#MEASURE 12/4
0, //96
#END

COURSE:Hard
LEVEL:6
BALLOON:9,12,9,9,12,9,9
SCOREINIT:560,2620
SCOREDIFF:133
#START
1,
1000001110000000,
10111111,
3344,
6,
000000000000000000000000000008000000000000000000, //6
#SCROLL 1.5
#GOGOSTART
700000000000000000000000000000000000080000000000,
#SCROLL 1
10210100,
1000001110202010,
0000001000100011,
11210121,
4402,
10210025,
000000000000000000000000000000000008000000000000, //14
#GOGOEND
10121010,
10121010,
20121010,
40044110,
10121010,
10121012,
500000000000000000000000000000000008000000000000,
3000000000111000, //22
10201120,
10220220,
10201120,
10110110,
10211120,
10211120,
500000000000000000000000000000000008000000000000,
30030000, //30
10012021,
12012022,
10012021,
10000121,
0011101000102010,
0011101000102010,
0011101000102010,
0121, //38
#GOGOSTART
300300000400400000600080,
000000900000000000000000000000000000090000000008,
0,
#GOGOEND
4400, //42
#GOGOSTART
1110200011102000,
1122,
1110200011102000,
10102021,
40440220,
30330122,
11301130,
1000101000111000, //50
1110200011102000,
1122,
1110200011102000,
10102021,
40440220,
30330121,
1110400011104000,
10110000, //58
20212121,
20212120,
12101210,
11220700,
000000000000000000080000000000700000000000000000,
000000000000000000080000000000000000100000200000,
10212000,
3344, //66
9009,
8,
1000001110202010,
0000001000100011,
11210121,
4402,
10210025,
000000000000000000000000000000000008000000000000, //74
#GOGOEND
1,
1,
2,
2,
10110000,
20220000,
1110400011104000,
10110000, //82
#GOGOSTART
20212121,
20212120,
12101210,
11220700,
000000000000000000080000000000700000000000000000,
000000000000000000080000000000000000100000200000,
10212000,
3344, //90
600000000000000000000000000000000008000000000000,
4000400000111000,
#GOGOEND
3,
0,
0,
#MEASURE 12/4
0, //96
#END

COURSE:Normal
LEVEL:4
BALLOON:6,7,6,6,8,6,6
SCOREINIT:630,5170
SCOREDIFF:183
#START
1,
1,
11,
3344,
6,
000000000000000000000000000008000000000000000000, //6
#SCROLL 1.5
#GOGOSTART
700000000000000000000000000000000000080000000000,
#SCROLL 1
0303,
0303,
0303,
0303,
4400,
0303,
0, //14
#GOGOEND
10011000,
0111,
20022000,
30033000,
10011000,
0111,
500000000000000000000000000000000008000000000000,
3, //22
1212,
1,
2121,
2,
10011000,
0111,
500000000000000000000000000000000008000000000000,
30030000, //30
10011000,
10011000,
10011000,
1,
000000500000000000000000000008000000000000000000,
000000500000000000000000000008000000000000000000,
000000500000000000000000000008000000000000000000,
0111, //38
#GOGOSTART
300000000400000000600080,
000000900000000000000000000000000000090000000008,
0,
#GOGOEND
4400, //42
#GOGOSTART
11,
1122,
11,
1122,
30330000,
30330000,
1313,
600000000000000000000000000008000000000000000000, //50
11,
1122,
11,
1122,
30330000,
30330000,
1414,
600000000000000000000000000008000000000000000000, //58
1111,
1111,
2222,
20000700,
000000000000000000080000000000700000000000000000,
000000000000000000080000000000000000100000100000,
10222000,
3344, //66
9009,
8,
0303,
0303,
0303,
4400,
0303,
0, //74
#GOGOEND
1,
1,
2,
2,
10110000,
20220000,
1414,
600000000000000000000000000008000000000000000000, //82
#GOGOSTART
1111,
1111,
2222,
20000700,
000000000000000000080000000000700000000000000000,
000000000000000000080000000000000000100000100000,
10222000,
3344, //90
600000000000000000000000000000000008000000000000,
4400,
#GOGOEND
3,
0,
0,
#MEASURE 12/4
0, //96
#END

COURSE:Easy
LEVEL:3
BALLOON:4,4,4,4,4,4,4,6,4,4
SCOREINIT:510,7230
SCOREDIFF:138
#START
1,
1,
11,
3300,
6,
000000000000000000000000000008000000000000000000, //6
#SCROLL 1.5
#GOGOSTART
700000000000000000000000000000000000080000000000,
#SCROLL 1
0303,
0303,
0303,
0303,
4400,
0303,
0, //14
#GOGOEND
11,
0,
22,
33,
11,
0111,
500000000000000000000000000008000000000000000000,
3, //22
11,
2,
22,
1,
11,
0111,
500000000000000000000000000008000000000000000000,
30030000, //30
7008,
700000000000000000000000000000000000080000000000,
7008,
1,
000000500000000000000000000008000000000000000000,
000000500000000000000000000008000000000000000000,
000000500000000000000000000008000000000000000000,
0110, //38
#GOGOSTART
30030030,
000000900000000000000000000000000000090000000008,
0,
#GOGOEND
4400, //42
#GOGOSTART
11,
1110,
22,
2220,
3300,
3300,
0303,
600000000000000000000008000000000000000000000000, //50
11,
1110,
22,
2220,
3300,
3300,
0404,
600000000000000000000008000000000000000000000000, //58
11,
11,
1110,
10000700,
000000000000000000080000000000700000000000000000,
000000000000000000080000000000000000000000000000,
11,
3333, //66
9009,
8,
0303,
0303,
0303,
4400,
0303,
0, //74
#GOGOEND
1,
1,
2,
2,
1100,
2200,
0404,
600000000000000000000008000000000000000000000000, //82
#GOGOSTART
1110,
1110,
1111,
10000700,
000000000000000000080000000000700000000000000000,
000000000000000000080000000000000000000000000000,
11,
3344, //90
600000000000000000000000000008000000000000000000,
4400,
#GOGOEND
3,
0,
0,
#MEASURE 12/4
0, //96
#END
