//TJADB Project
TITLE:Reason‼
TITLEJA:Reason!!
SUBTITLE:--EFFY feat. Takuma Terashima/THE iDOLM@STER SideM
SUBTITLEJA:「アイドルマスター SideM」より
BPM:190
WAVE:Reason!!.ogg
OFFSET:-1.503
DEMOSTART:58.904
SCENEPRESET:IMAS_SIDEM //shinuchi:
16700/8740/4610/2330

COURSE:Oni
LEVEL:6
BALLOON:13,15
SCOREINIT:690,2460
SCOREDIFF:185
#START
10002001,
0222,
10002001,
0000200020002011,
1000200020002011,
1000200020002011,
500000000000000000000000000000000000000008000000,
00202202,
02700000,
0822, //10
#GOGOSTART
10201120,
10210121,
1000202000111010,
2020102000222010,
10201120,
10210120,
22112211,
2000101022201000, //18
#GOGOEND
1000200011102010,
01201120,
1000200011102000,
10210120,
1110201000102000,
1110201000102000,
11221120,
1020201000222000, //26
1000200011102010,
01201120,
1000200011102000,
10210120,
2220102000201000,
1110201000102020,
1000200010222010,
04444022, //34
10012021,
01102010,
10012010,
10220021,
20434021,
20434021,
2000200022202000,
2220200022202000,
1022201020001022,
21201010,
1110111022222040,
04402020, //46
#GOGOSTART
1000200011102010,
01201120,
1000201000222030,
0020100022201020,
0020100022201020,
0020100022201000,
2220202000200030,
0010222022201000, //54
1000200011102010,
01201120,
1000200011102030,
01201120,
2010200020102220,
2010200020102220,
2010200020102220,
02102020, //62
10012000,
10002201,
01111221,
0010111022202220,
10212120,
1022201022201000,
7,
0800,
#GOGOEND
0, //71
#END

COURSE:Hard
LEVEL:3
BALLOON:14,8,8,6,13
SCOREINIT:960,4960
SCOREDIFF:300
#START
10000001,
0,
10001001,
0222,
0111,
0222,
500000000000000000000000000000000000000008000000,
00101101,
01700000,
08, //10
#GOGOSTART
1011,
10110011,
10110000,
11110110,
1011,
10010000,
11112222,
500000000000000000000000000000000008000000000000, //18
#GOGOEND
10101011,
0222,
1011,
10110000,
10110000,
20220010,
11,
700000000000000000000000000000000008000000000000, //26
10101011,
0222,
1011,
10110000,
20220000,
10110011,
10101015,
000000000000000000000008000000000000100000100000, //34
10001011,
0222,
1011,
20220011,
10444011,
10444011,
1011,
2211,
5,
000000000000000000000000000000000008000000000000,
7008,
0011, //46
#GOGOSTART
10001101,
0222,
10150000,
000008000000000000000000100000000000100000100000,
00001111,
0011,
10110103,
0011, //54
10001101,
0222,
10001007,
08,
11101111,
0022,
10101111,
0222, //62
12,
10001105,
000000000000000008000000000000200000200000200000,
0111,
500000000000000000000000000008000000000000000000,
600000000000000000000000000000000008000000000000,
7,
0800,
#GOGOEND
0, //71
#END

COURSE:Normal
LEVEL:2
BALLOON:15,5,11,30,7,7,7,9
SCOREINIT:1310,9670
SCOREDIFF:635
#START
1,
0,
1,
0111,
0111,
0222,
9,
09,
8,
0, //10
#GOGOSTART
1011,
1,
3,
7008,
1011,
1,
7,
08, //18
#GOGOEND
1111,
0111,
1022,
2,
1100,
1100,
22,
3, //26
1111,
0111,
1022,
3,
2200,
1101,
5,
000000000000000000000008000000000000100000000000, //34
11,
02,
1011,
4001,
1001,
1001,
9,
0,
0,
9,
8,
0011, //46
#GOGOSTART
11,
0222,
7,
81,
01,
0011,
7,
8011, //54
11,
0222,
7,
8,
1111,
0011,
20202005,
000000000000000000000000000000000008000000000000, //62
12,
10001105,
000000000000000000000000000000000000000000000008,
0111,
500000000000000000000000000008000000000000000000,
600000000000000000000000000000000008000000000000,
9000000000000009,
0800,
#GOGOEND
0, //71
#END

COURSE:Easy
LEVEL:1
BALLOON:3,3,3,12,9,25,6,6,6,7
SCOREINIT:1660,19750
SCOREDIFF:1445
#START
1,
0,
1,
0708,
0708,
0708,
9,
09,
8,
0, //10
#GOGOSTART
11,
1,
1,
3,
11,
3,
7,
08, //18
#GOGOEND
1,
0,
11,
1,
1,
1,
11,
3, //26
1,
0,
11,
3,
1,
1,
5,
000000000000000000000008000000000000000000000000, //34
1,
02,
1,
3,
11,
11,
9,
0,
0,
9,
8,
0, //46
#GOGOSTART
11,
01,
7,
81,
01,
01,
7,
8, //54
11,
01,
7,
8,
11,
01,
5,
000000000000000000000000000008000000000000000000, //62
11,
10001005,
000000000000000000000000000000000000000000000008,
02,
500000000000000000000000000008000000000000000000,
600000000000000000000000000008000000000000000000,
9000000000000009,
0800,
#GOGOEND
0, //71
#END
