//TJADB Project
TITLE:Carnation
TITLEJA:和蘭撫子
SUBTITLE:--NOMI & ASKA feat. Asukao™
BPM:156
WAVE:Carnation.ogg
OFFSET:-1.932
DEMOSTART:67.218

COURSE:Oni
LEVEL:8
BALLOON:24,18
SCOREINIT:600
SCOREDIFF:155
#START
#MEASURE 6/4
100010001001001000700000,
#MEASURE 4/4
,
0800,
1020111210201112,
1022111111211122,
1021102010211020,
1012102011221000,
1021102010211020,
1111221211221000,
1021102010211020,
1021102011221000,
1021102010211020,
1020112012112022,
1010201010112010,
1010201110112011,
1022220012012012,
0010222010020000,
1010221010201122,
1010201011102070,
00000008,
000400400400000111200000,
1022102210102010,
1020102210102211,
1022102210102010,
02100003,
03333004,
04444000,
1022102210102010,
1020102210102211,
1022102210102010,
02100003,
03333000,
1011102010002000,
1022202010002000,
1011102010002000,
1022202010002000,
1011102010002000,
1022202011121011,
2020102010221120,
1022112010201020,
100000000000100000200200100100200200100100101010,
1020111022021101,
#GOGOSTART
1022112010201120,
1021112011202000,
1020112210201022,
1022102211202000,
1022112010201120,
1021112011202000,
4000000030030030,
0300300040000000,
1020101210201012,
1020101211204000,
300000003000000030000000300000000300000000300000,
1122111021221111,
1022112010201120,
1021112011202000,
500000000000000000000000000008000000000000200000,
000100100100100111200000,
1414,
10404011,
#GOGOEND
00000004,
0300,
,
,
000000000000000000000011,
1,
#END

COURSE:Hard
LEVEL:6
BALLOON:20,15,10
SCOREINIT:700
SCOREDIFF:185
#START
#MEASURE 6/4
100010001001001000700000,
#MEASURE 4/4
,
0800,
1010111010100010,
500000000000000000000000000000000008000000000000,
12121120,
11201020,
12121120,
1110111010102000,
12121120,
11201020,
12121120,
500000000000000000000000000000000008000000000000,
11201120,
11221122,
0022200022022022,
0020222020000000,
11201120,
11221127,
00000008,
04440000,
11221120,
11221010,
11221122,
01200003,
03333004,
04444000,
11221120,
11221010,
11221122,
01200003,
03333000,
10101120,
10201120,
10101120,
10201120,
11101120,
11101120,
11221122,
11221122,
1111,
500000000000000000000000000000000008000000000000,//42
#GOGOSTART
1010111010101110,
100000100000500000000000000000000008000000000000,
1010111010101110,
1010111022202000,
1010111010101110,
100000100000500000000000000008000000000000000000,
4000000030030030,
0300300040000000,
1020101110202000,
1020101110202000,
300000003000000030000000300000000300000000600000,
000000000000000000000000000000000008000000000000,
1010111010101110,
100000100000500000000000000000000008000000000000,
70000802,
01111040,
1414,
10404011,//60
#GOGOEND
00000004,
0300,
,
,
000000000000000000000011,
1,
,
,
#END

COURSE:Normal
LEVEL:5
BALLOON:15,10,7
SCOREINIT:840
SCOREDIFF:275
#START
#MEASURE 6/4
000000000700,
#MEASURE 4/4
0,
0800,
01000105,
000000000000000000000000000000000008000000000000,
11110000,
1122,
11110000,
500000000000000000000000000000000008000000000000,
11110000,
1122,
11110000,
500000000000000000000000000000000008000000000000,
11101000,
11101005,
000000000000000000000000000000000008000000000000,
,
11101000,
11101007,
0008,
04440000,
10101110,
1100,
10101110,
10200003,
03333004,
04444000,
10101110,
1100,
10101110,
10200003,
03333000,
1012,
1012,
1112,
1100,
1012,
1012,
10101110,
10101110,
1111,
500000000000000000000000000000000008000000000000,//42
#GOGOSTART
11101110,
100000000000500000000000000000000008000000000000,
11101110,
10102220,
11101110,
100000000000500000000000000008000000000000000000,
4000000030030030,
0300300000000000,
10101100,
10102200,
300000003000000030000000300000000300000000600000,
000000000000000000000000000000000008000000000000,
11101110,
100000100000500000000000000000000008000000000000,
70000801,
01111020,
1212,
10202011,//60
#GOGOEND
00000004,
0300,
,
,
#BARLINEOFF
,
,
,
,
#END

COURSE:Easy
LEVEL:4
BALLOON:10,7,5
SCOREINIT:720
SCOREDIFF:258
#START
#MEASURE 6/4
000000000700,
#MEASURE 4/4
0,
0800,
01000105,
000000000000000000000000000008000000000000000000,
11,
1022,
11,
500000000000000000000000000008000000000000000000,
11,
1022,
11,
500000000000000000000000000008000000000000000000,
1110,
1110,
500000000000000000000000000000000008000000000000,
,
1110,
10101007,
0008,
04440000,
1111,
1100,
1111,
10100003,
03333000,
,
1111,
1100,
1111,
10100003,
03333000,
1112,
500000000000000000000000000008000000000000000000,
1112,
1100,
1112,
500000000000000000000000000008000000000000000000,
1110,
1110,
1111,
500000000000000000000000000008000000000000000000,//42
#GOGOSTART
1111,
100000000000500000000000000008000000000000000000,
2222,
500000000000000000000000000008000000000000000000,
1111,
100000000000500000000000000008000000000000000000,
4000000030030030,
0300300000000000,
1110,
2220,
6,
000000000000000000000000000008000000000000000000,
1111,
100000000000500000000000000008000000000000000000,
70000801,
0114,
0404,
0440,//60
#GOGOEND
00000004,
0300,
,
,
#BARLINEOFF
,
,
,
,
#END
