//TJADB Project
TITLE:OK I’m blue rat
TITLEJA:OK I’m blue rat
SUBTITLE:--E.G.G.
SUBTITLEJA:E.G.G.
BPM:128
WAVE:OK Im blue rat.ogg
OFFSET:-3.851
DEMOSTART:53.304 //shinuchi:
7390/4440/2220/1210

COURSE:Oni
LEVEL:10
BALLOON:5,5
SCOREINIT:460,1230
SCOREDIFF:113
#START
#BARLINEOFF
00000222,
#BARLINEON
#MEASURE 5/8
1020212020,
#MEASURE 7/8
10202210202121,
#MEASURE 5/8
1020212020,
#MEASURE 7/8
10202022010220,
20202120121120,
#MEASURE 5/8
2212012010,
#MEASURE 7/8
22120120221120,
#MEASURE 5/8
2212012010,
#MEASURE 7/8
100000200000100020002000200100100100200000,
#MEASURE 5/4
100000200000200020001000202020000100200000100200202020100000, //11
#MEASURE 5/8
2212012010,
#MEASURE 7/8
22120120221120,
#MEASURE 5/8
2212012010,
#MEASURE 7/8
100000200000100020002000200100100100200000,
100000200000200020001000202020000100202020,
#MEASURE 5/8
2212012010,
#MEASURE 7/8
22120120221120,
#MEASURE 5/8
2212012010,
#MEASURE 7/8
100000200000100020002000200100100100200000,
100000200000200020001000202020000100202020,
#MEASURE 11/8
100202001201202222111100202001200, //22
100200200200100200200200200200200200100000100100200200100010000010,
200200200200100100200200200200202010202010100020000010000000200200,
100200200200100200200200200200200200100000100100200200100010000010,
#MEASURE 9/8
200200200200100100200200200200202010202010100020000020,
#MEASURE 9/4
2,
#MEASURE 5/8
1122211110, //28
#MEASURE 4/4
#GOGOSTART
1021112202112201,
#MEASURE 5/8
200020000100200000200000100000,
#MEASURE 5/4
200000200000100000200200200200200100000200202010000200100000,
#MEASURE 4/4
1021220101201221,
#MEASURE 5/8
200020000100200000200000100000,
#MEASURE 5/4
200000200000100000200200200200200100000200100020000200100000, //34
#GOGOEND
#MEASURE 5/8
2020220210,
#MEASURE 7/8
400100200200100202010,
#MEASURE 5/8
2010220202,
#MEASURE 7/8
500000000000000008000000700000000000800000,
#MEASURE 4/4
#GOGOSTART
1021112202112201,
#MEASURE 5/8
200020000100200000200000100000,
#MEASURE 5/4
200000200000100000200200200200200100000200202010000200100000,
#MEASURE 4/4
1021220101201221,
#MEASURE 5/8
200020000100200000200000100000,
#MEASURE 5/4
200000200000100000200200200200200100000200100020000200200000, //44
#GOGOEND
#MEASURE 5/8
1001101010,
#MEASURE 7/8
10100110101111,
#MEASURE 5/8
1001101010,
#MEASURE 7/8
10101110101110,
10101011111110,
#MEASURE 5/8
2020020202,
#MEASURE 7/8
02202020220202,
#MEASURE 5/8
0202020222,
#MEASURE 7/8
20220202202020,
20220202022022, //54
#MEASURE 5/8
1020120202,
#MEASURE 7/8
12212020221202,
#MEASURE 5/8
0212021222,
#MEASURE 7/8
20221202202120,
#MEASURE 5/4
200000200200000200100200000200200100200200100200202020100000,
#MEASURE 5/8
2212212010,
#MEASURE 7/8
22122120221120,
#MEASURE 5/8
2212212010,
#MEASURE 7/8
100000200000100020002000200200100100200000,
100000200000200020001000202010000100202020,
#MEASURE 11/8
100202001201202222111100202001200,
#MEASURE 5/8
1122211110, //66
#MEASURE 4/4
#GOGOSTART
1021112202112201,
#MEASURE 5/8
200020000100200000200000100000,
#MEASURE 5/4
200000200000100000200200200200201010100200202010000200100000,
#MEASURE 4/4
1021220101201221,
#MEASURE 5/8
200020000100200000200000100000,
#MEASURE 5/4
200000200000100000200200200200201010100200100020000200100000,
#GOGOEND
#MEASURE 5/8
2020220210,
#MEASURE 7/8
400100200200100202010,
#MEASURE 5/8
2010220202,
#MEASURE 7/8
500000000000000008000000700000000000800000, //76
#MEASURE 5/8
2212212010,
#MEASURE 7/8
22122120221120,
#MEASURE 5/8
2212212010,
#MEASURE 7/8
100000200000100020002000200200100100200000,
100000200000200020001000202020000100202020,
#MEASURE 13/8
100202001201202222112100202001200000000,
#MEASURE 3/4
#BPMCHANGE 126
#SCROLL 3
3,
#BPMCHANGE 128
#SCROLL 2.5
0,
#SCROLL 2
0,
#BARLINEOFF
#BPMCHANGE 130
#SCROLL 1
0,
#BARLINEON
#MEASURE 7/4
#BPMCHANGE 128
221000000000000000000000000000000000000000, //87
#END

COURSE:Hard
LEVEL:8
BALLOON:7,10,6,6,20,20,3,6,3,6
SCOREINIT:680,2390
SCOREDIFF:160
#START
#BARLINEOFF
0,
#BARLINEON
#MEASURE 5/8
12011,
#MEASURE 7/8
10202000202011,
#MEASURE 5/8
12211,
#MEASURE 7/8
2227000,
8,
#MEASURE 5/8
1011002000,
#MEASURE 7/8
10110020101000,
#MEASURE 5/8
1011002000,
#MEASURE 7/8
10202000222000,
#MEASURE 5/4
1270000800, //11
#MEASURE 5/8
1011002010,
#MEASURE 7/8
10110020101000,
#MEASURE 5/8
1011002010,
#MEASURE 7/8
10202000222020,
1270080,
#MEASURE 5/8
1011002010,
#MEASURE 7/8
10110020101000,
#MEASURE 5/8
1011002010,
#MEASURE 7/8
10202000222020,
1270080,
#MEASURE 11/8
500000000000000000000000000000000000000000000000000000000008000000, //22
1011101010100010101007,
00000000080,
1011101010100010101007,
#MEASURE 9/8
0,
#MEASURE 9/4
8,
#MEASURE 5/8
0, //28
#MEASURE 4/4
#GOGOSTART
1000101100101100,
#MEASURE 5/8
20221,
#MEASURE 5/4
20201020202202200220,
#MEASURE 4/4
1010100101101000,
#MEASURE 5/8
20221,
#MEASURE 5/4
20201020202202200220, //34
#GOGOEND
#MEASURE 5/8
1010110110,
#MEASURE 7/8
0122120,
#MEASURE 5/8
1020220202,
#MEASURE 7/8
500000000000000008000000700000000000800000,
#MEASURE 4/4
#GOGOSTART
1000101100101100,
#MEASURE 5/8
20221,
#MEASURE 5/4
20201020202202200220,
#MEASURE 4/4
1010100101101000,
#MEASURE 5/8
20221,
#MEASURE 5/4
20201020202202200220, //44
#GOGOEND
#MEASURE 5/8
1001101000,
#MEASURE 7/8
10101110100000,
#MEASURE 5/8
1001101000,
#MEASURE 7/8
10101110100000,
10101110000000,
#MEASURE 5/8
2002202000,
#MEASURE 7/8
20202220200000,
#MEASURE 5/8
2002202000,
#MEASURE 7/8
20202220200000,
20202220000000, //54
#MEASURE 5/8
2002202010,
#MEASURE 7/8
20202220100000,
#MEASURE 5/8
2002202010,
#MEASURE 7/8
20202220100000,
#MEASURE 5/4
20202220102010000000,
#MEASURE 5/8
1011002010,
#MEASURE 7/8
10110020101000,
#MEASURE 5/8
1011002010,
#MEASURE 7/8
10202000222020,
1270080,
#MEASURE 11/8
500000000000000000000000000000000000000000000000000000000008000000,
#MEASURE 5/8
0, //66
#MEASURE 4/4
#GOGOSTART
1000101100101100,
#MEASURE 5/8
20221,
#MEASURE 5/4
20201022202202200220,
#MEASURE 4/4
1010100101101000,
#MEASURE 5/8
20221,
#MEASURE 5/4
20201022202202200220,
#GOGOEND
#MEASURE 5/8
1010110110,
#MEASURE 7/8
0122120,
#MEASURE 5/8
1020220202,
#MEASURE 7/8
500000000000000008000000700000000000800000, //76
#MEASURE 5/8
1022002010,
#MEASURE 7/8
10220020101000,
#MEASURE 5/8
1022002010,
#MEASURE 7/8
10202000222020,
1270080,
#MEASURE 13/8
500000000000000000000000000000000000000000000000000000000008000000000000000000,
#MEASURE 3/4
#BPMCHANGE 126
3,
#BPMCHANGE 128
0,
4,
#BPMCHANGE 130
0,
#MEASURE 7/4
#BPMCHANGE 128
0, //87
#END

COURSE:Normal
LEVEL:6
BALLOON:8,5,12,13,13,5,5,7,7,7,8,12,5,7,14
SCOREINIT:1040,5110
SCOREDIFF:268
#START
#BARLINEOFF
0,
#BARLINEON
#MEASURE 5/8
0,
#MEASURE 7/8
0,
#MEASURE 5/8
0,
#MEASURE 7/8
0,
0,
#MEASURE 5/8
11010,
#MEASURE 7/8
1101000,
#MEASURE 5/8
11010,
#MEASURE 7/8
1010100,
#MEASURE 5/4
7000000800, //11
#MEASURE 5/8
11010,
#MEASURE 7/8
1101010,
#MEASURE 5/8
11010,
#MEASURE 7/8
2220200,
7000800,
#MEASURE 5/8
11010,
#MEASURE 7/8
1101010,
#MEASURE 5/8
11010,
#MEASURE 7/8
2220200,
1110100,
#MEASURE 11/8
70000000080, //22
1010001010000010100007,
00000000080,
1010001010000010100007,
#MEASURE 9/8
0,
#MEASURE 9/4
8,
#MEASURE 5/8
0, //28
#MEASURE 4/4
#GOGOSTART
10110110,
#MEASURE 5/8
20220,
#MEASURE 5/4
200000200000000000500000000000000000000000000008000000000000,
#MEASURE 4/4
7081,
#MEASURE 5/8
20220,
#MEASURE 5/4
500000000000000000000000000000000000000000000008000000000000, //34
#GOGOEND
#MEASURE 5/8
11101,
#MEASURE 7/8
0500000,
#MEASURE 5/8
000000000000000008000000000000,
#MEASURE 7/8
3000300,
#MEASURE 4/4
#GOGOSTART
10110110,
#MEASURE 5/8
20220,
#MEASURE 5/4
200000200000000000500000000000000000000000000008000000000000,
#MEASURE 4/4
7081,
#MEASURE 5/8
20220,
#MEASURE 5/4
2227000080, //44
#GOGOEND
#MEASURE 5/8
10110,
#MEASURE 7/8
1100000,
#MEASURE 5/8
10110,
#MEASURE 7/8
1101100,
7000080,
#MEASURE 5/8
20220,
#MEASURE 7/8
2200000,
#MEASURE 5/8
20220,
#MEASURE 7/8
2200000,
7000080, //54
#MEASURE 5/8
20220,
#MEASURE 7/8
2201100,
#MEASURE 5/8
20220,
#MEASURE 7/8
2201100,
#MEASURE 5/4
70080,
#MEASURE 5/8
11010,
#MEASURE 7/8
2202020,
#MEASURE 5/8
11010,
#MEASURE 7/8
2220200,
1110100,
#MEASURE 11/8
70000000080,
#MEASURE 5/8
0, //66
#MEASURE 4/4
#GOGOSTART
10110110,
#MEASURE 5/8
20220,
#MEASURE 5/4
200000200000200000500000000000000000000000000008000000000000,
#MEASURE 4/4
7081,
#MEASURE 5/8
20220,
#MEASURE 5/4
2227000080,
#GOGOEND
#MEASURE 5/8
11101,
#MEASURE 7/8
0500000,
#MEASURE 5/8
000000000008000000000000000000,
#MEASURE 7/8
3000300, //76
#MEASURE 5/8
11020,
#MEASURE 7/8
1102010,
#MEASURE 5/8
11020,
#MEASURE 7/8
2220200,
1110101,
#MEASURE 13/8
7000000000800,
#MEASURE 3/4
#BPMCHANGE 126
3,
#BPMCHANGE 128
0,
4,
#BPMCHANGE 130
0,
#MEASURE 7/4
#BPMCHANGE 128
0, //87
#END

COURSE:Easy
LEVEL:4
BALLOON:7,4,10,10,10,5,5,7,10,5,5,11
SCOREINIT:930,8590
SCOREDIFF:293
#START
#BARLINEOFF
0,
#BARLINEON
#MEASURE 5/8
0,
#MEASURE 7/8
0,
#MEASURE 5/8
0,
#MEASURE 7/8
0,
0,
#MEASURE 5/8
10010,
#MEASURE 7/8
1001000,
#MEASURE 5/8
10010,
#MEASURE 7/8
1010100,
#MEASURE 5/4
7000000800, //11
#MEASURE 5/8
10010,
#MEASURE 7/8
1001000,
#MEASURE 5/8
20020,
#MEASURE 7/8
1010100,
7000800,
#MEASURE 5/8
10010,
#MEASURE 7/8
1001000,
#MEASURE 5/8
20020,
#MEASURE 7/8
1010100,
2020200,
#MEASURE 11/8
70000000080, //22
1000000010000000100007,
00000000080,
1000000010000000100007,
#MEASURE 9/8
0,
#MEASURE 9/4
8,
#MEASURE 5/8
0, //28
#MEASURE 4/4
#GOGOSTART
10000100,
#MEASURE 5/8
10100,
#MEASURE 5/4
100000000000000000500000000000000000000008000000000000000000,
#MEASURE 4/4
11,
#MEASURE 5/8
10100,
#MEASURE 5/4
500000000000000000000000000000000000000008000000000000000000, //34
#GOGOEND
#MEASURE 5/8
10100,
#MEASURE 7/8
0500000,
#MEASURE 5/8
000000000008000000000000000000,
#MEASURE 7/8
3000300,
#MEASURE 4/4
#GOGOSTART
10000100,
#MEASURE 5/8
10100,
#MEASURE 5/4
1007000080,
#MEASURE 4/4
11,
#MEASURE 5/8
10100,
#MEASURE 5/4
1007000080, //44
#GOGOEND
#MEASURE 5/8
1,
#MEASURE 7/8
1,
#MEASURE 5/8
1,
#MEASURE 7/8
1,
3,
#MEASURE 5/8
2,
#MEASURE 7/8
2,
#MEASURE 5/8
2,
#MEASURE 7/8
2,
4, //54
#MEASURE 5/8
20202,
#MEASURE 7/8
0,
#MEASURE 5/8
20202,
#MEASURE 7/8
0,
#MEASURE 5/4
70080,
#MEASURE 5/8
10010,
#MEASURE 7/8
1001000,
#MEASURE 5/8
20020,
#MEASURE 7/8
1010100,
2020200,
#MEASURE 11/8
70000000080,
#MEASURE 5/8
0, //66
#MEASURE 4/4
#GOGOSTART
10000100,
#MEASURE 5/8
10100,
#MEASURE 5/4
1007000080,
#MEASURE 4/4
11,
#MEASURE 5/8
10100,
#MEASURE 5/4
1007000080,
#GOGOEND
#MEASURE 5/8
10100,
#MEASURE 7/8
0500000,
#MEASURE 5/8
000000000008000000000000000000,
#MEASURE 7/8
3000300, //76
#MEASURE 5/8
10010,
#MEASURE 7/8
2002000,
#MEASURE 5/8
10010,
#MEASURE 7/8
2020200,
1010100,
#MEASURE 13/8
7000000000800,
#MEASURE 3/4
#BPMCHANGE 126
3,
#BPMCHANGE 128
0,
4,
#BPMCHANGE 130
0,
#MEASURE 7/4
#BPMCHANGE 128
0, //87
#END
