//TJADB Project
TITLE:Blessed Bouquet Buskers
TITLEJA:Blessed Bouquet Buskers
SUBTITLE:--steμ
SUBTITLEJA:
BPM:188
WAVE:Blessed Bouquet Buskers.ogg
OFFSET:-1.651
DEMOSTART:65.148 //shinuchi:
4930/3010/1770/1060

COURSE:Oni
LEVEL:10
BALLOON:12,20,4,4,8,10
SCOREINIT:430,1140
SCOREDIFF:95
#START
7008,
3000000022222222,
20220202,
1111100022222222,
20220202,
1111100000002222,
1000222222222222,
1000122210200020,
100100100100100000200000100100100100100000202020, //9
1000100011221122,
1000102210200020,
1000100011221122,
1000102210200020,
1111100011112000,
1111222211112222,
1000112210200020,
1111102011111022,
7,
0000800011111000, //19
3222,
2022,
2022,
20022000,
2022,
2222,
2222,
2000002020000022, //27
1000100010111010,
1000100010111020,
1000100010111010,
1000102010001222,
1000100010111010,
1000100010111020,
1000100010111010,
500000000008000000100100500000000000000008000000, //35
1011201010112010,
122122122122,
1011201010112010,
122122122122,
1011201120112011,
211211211211,
2011201120112011,
211211211211, //43
2010111010101110,
2010111120101110,
2010111010101110,
2010111120101110,
2010111010101111,
2010111120101111,
2211221122112000,
400000000000000111200000, //51
#GOGOSTART
3000200011221122,
1022102010221020,
1000200011221122,
1022102010221020,
500000000000000000000000000008000000200000000000,
1000221122112211,
1000221110200020,
500000000008000000100100500000000008000000101010, //59
2011221011221122,
1022102010221020,
2211221011221122,
1022102010221020,
500000000000000000000000000008000000200000000000,
1011221122112211,
2010221120112000,
3000300040040040, //67
#GOGOEND
700000000000080000000000100100100100100100100100,
2000222000200020,
700000000000080000000000100100100100100100100100,
2000222000200020,
700000800222,
111222111222,
1000111110200020,
500000000008000000200200500000000008000000200200, //75
1000200011112222,
1000222010200020,
1000200011112222,
1000222010200020,
7000000000008022,
12,
1111222211112222,
1122112212121212, //83
#GOGOSTART
1011201210112021,
1011201210112212,
1021202210212021,
1021202210112212,
1011221121212211,
1011221121212222,
1433,
40303443, //91
#GOGOEND
3022202210222210,
1022122012221000,
1222202012222010,
1222102010221000,
3000200010002022,
100000200200200010001000100000200200200010001000,
1020122210221122,
1212111120040040, //99
6,
000000000000000000000000000000000008000000000000,
3,
0,
0,
0, //105
#END

COURSE:Hard
LEVEL:6
BALLOON:9,9,15,9,9,9,9,9,7
SCOREINIT:480,2000
SCOREDIFF:108
#START
7008,
3000000022202220,
20220202,
1000000022202220,
20220202,
1002,
2000222022202000,
1000111020200020,
7008, //9
3000100011101110,
10220202,
1000100011101110,
10220202,
1112,
1110100022202000,
1000111020200020,
500000000000000008000000500000000000000008000000,
7,
0000800011111000, //19
3222,
2022,
2022,
20022000,
2022,
2222,
2222,
20022002, //27
10201120,
1000111020002000,
10201120,
1000111020000000,
1110100020002000,
1110100020002000,
1110200011102000,
500000000000000000000000000000000000000008000000, //35
1000200010111010,
7008,
1000200010222020,
7008,
1000200010111010,
7008,
1000200010222020,
7008, //43
1000111020002000,
1122,
1000111020002000,
1122,
1000200011102000,
1000200011102000,
1110200011102000,
4000000000112000, //51
#GOGOSTART
3000200011101110,
10220202,
1000200011101110,
10220202,
500000000000000000000008000000000000200000000000,
1000111011102000,
1000111010200020,
500000000000000008000000500000000000000008000000, //59
3000200011101110,
10220202,
1000200011101110,
10220202,
500000000000000000000008000000000000200000000000,
1000111011102000,
500000000000000000000008000000000000200000000000,
3000300040040040, //67
#GOGOEND
3212,
10220202,
1212,
10220202,
10201022,
7008,
10201202,
12, //75
1000200011102220,
20220202,
1000200011102220,
20220202,
7000000000008022,
22,
1110200011102000,
500000000000000000000000000000000000000008000000, //83
#GOGOSTART
3000100010111000,
1011100010111000,
2000200020222000,
2022200020222000,
1011100022202020,
1011100022202020,
3433,
40303344, //91
#GOGOEND
3000200010111000,
1011101020222000,
1000200010111000,
1011101020002000,
1002,
100111100111,
1000111020200020,
1110100040040040, //99
6,
000000000000000000000000000000000008000000000000,
3,
0,
0,
0, //105
#END

COURSE:Normal
LEVEL:5
BALLOON:5,11,5,5,5,5,3,15
SCOREINIT:600,3430
SCOREDIFF:150
#START
0,
32,
2,
12,
2,
1002,
2222,
10102202,
7008, //9
1011,
10220202,
2011,
10220202,
2001,
1212,
10202202,
500000000000000008000000500000000000000008000000,
7,
08, //19
3222,
2022,
2022,
20022000,
2022,
2222,
2222,
20022000, //27
1111,
1011,
1022,
20022000,
1122,
1122,
1212,
500000000000000000000000000000000008000000000000, //35
10101011,
7008,
20202022,
7008,
10101011,
7008,
20202022,
7008, //43
1120,
12,
1120,
12,
1111,
2222,
1122,
3004, //51
#GOGOSTART
3011,
10220202,
2011,
10220202,
2002,
1222,
10201101,
500000000000000000000000000000000008000000000000, //59
3011,
10220202,
2011,
10220202,
2012,
1122,
1022,
1000100030030030, //67
#GOGOEND
31,
10000201,
11,
10000201,
1,
1011,
12,
78, //75
1011,
10220201,
1011,
10220201,
1,
22,
1122,
500000000000000000000000000000000008000000000000, //83
#GOGOSTART
3212,
1222,
1212,
1222,
10001111,
10002222,
2233,
40303333, //91
#GOGOEND
6,
000000000000000000000000000000000000000000000008,
0,
0,
1002,
1122,
10201202,
1000100030030030, //99
9,
09,
8,
0,
0,
0, //105
#END

COURSE:Easy
LEVEL:4
BALLOON:9,4,4,4,4,2,12
SCOREINIT:590,5570
SCOREDIFF:163
#START
0,
3,
2,
3,
2,
3,
22,
1110,
500000000000000000000000000008000000000000000000, //9
1022,
2,
1022,
2,
1,
2220,
1110,
500000000000000000000008000000000000000000000000,
7,
08, //19
32,
2,
22,
2,
2,
2,
22,
22, //27
1111,
12,
1111,
12,
11,
22,
1111,
500000000000000000000000000008000000000000000000, //35
11,
70000800,
11,
700000000000000000000000000008000000000000000000,
1110,
700000000000000000000000000008000000000000000000,
1110,
700000000000000000000000000008000000000000000000, //43
12,
22,
12,
22,
1110,
1110,
1111,
3, //51
#GOGOSTART
3011,
1,
2011,
1,
2001,
1110,
1111,
500000000000000000000000000008000000000000000000, //59
3011,
1,
2011,
1,
21,
1110,
1111,
17, //67
#GOGOEND
82,
2,
12,
2,
1,
22,
11,
2, //75
1022,
2,
1022,
2,
2,
1,
1111,
500000000000000000000000000008000000000000000000, //83
#GOGOSTART
3011,
1110,
2022,
2220,
1011,
1022,
2033,
3360, //91
#GOGOEND
0,
000000000000000000000000000000000000000000000008,
0,
0,
1,
22,
1111,
13, //99
9,
09,
8,
0,
0,
0, //105
#END
