//TJADB Project
TITLE:SORA-VII Cygnus Wall
TITLEJA:SORA-VII シグナスウォール
SUBTITLE:--Hisui
SUBTITLEJA:
BPM:180
WAVE:SORA-VII Cygnus Wall.ogg
OFFSET:-2.795
DEMOSTART:10.790

COURSE:Oni
LEVEL:10
SCOREINIT:430
SCOREDIFF:103
#START
#MEASURE 3/4
101,
220,
110,
200011100010000010,
101,
202020200,
110102210,
101000100022100010,
100001200,
100201001,
100001200,
100202102,
100001200,
100000200010200011,
100001002,
101010111,
101001200,
100202001,
222000200010200010,
222000200010200010,
101001202,
122021221,
200200200100200200200100200200101010,
111111,
100022202020,
100022202020,
201221,
000020002220,
100022202020,
100022202010,
102011,
011020,
122022201220,
122022201220,
122022201220,
122022221010,
122022221222,
122212221222,
122212121020,
102020111020,
212203,
002002,
002002,
000221212,//44
#GOGOSTART
102212,
100022102020,
102212,
200022111010,
225000,
000000000000000000000008000000000000,
302220302020,
300000200000200200100000200200202020,
102212,
100022102020,
102212,
211211211,
210500,
000000000000000000000008000000000000,
302022102222,
100000200000200000300000200200202020,
102212,
100022102020,
102212,
121002100100200200,
302220304000,
340322,
300000400122100400,
100200200200100020001000200020002000,
102112,
202212,
100220101020,
200012212222,
102112,
202212,
100220100220,
100000200200200010002000200010002000,//76
#GOGOEND
11,
22,
11,
22,
100100202100,
102100200100,
100100202100,
102100200100,
102120202120,
102120202120,
102010201210,
201020121210,
122122,
122121,
221221,
221212,
212212,
212212,
122122,
102022212222,
122122,
122121,
221221,
221212,
212212,
212212,
122122,
100100100111,//104
#GOGOSTART
100011201010200010,
020101122,
100011201010200010,
202101222,
101010202,
020120102,
100010200020102220,
100011100020102220,
100011201010200010,
020101122,
100011201010200010,
020101210,
5,
000000000000000000000008000000000000,
102121222,
122221222,
100011102000200011,
120201020,
100010221000100010,
221000100020002000,
102102102,
002000200022100020,
100022102000100020,
100020221010202020,
100011201010200020,
102020100011201010,
200020100011100020,
111000200022201020,
102012102012,
100102102,
100020100022102020,
122122100,//136
#GOGOEND
311110,
010111,
300000000121200100,
100200100200100020001000200010002000,
13,
#END

COURSE:Hard
LEVEL:7
BALLOON:15,10,10,30
SCOREINIT:440
SCOREDIFF:130
#START
#MEASURE 3/4
101,
2,
110,
210,
101,
201,
12,
12,
100002000,
100002001,
102,
102,
100001100,
202,
1,
101010100,
100002000,
100002001,
102,
102,
100001100,
202,
1,
111111,
1,
1,
201221,
000020001110,
1,
100001,
100011,
011020,
100022202000,
100022202020,
000022200020,
002011,
100022202000,
100022202000,
102220201010,
011001,
101103,
002002,
002002,
020,//44
#GOGOSTART
100022200020,
100022202000,
100022202000,
100022202000,
7,
008,
33,
300000300011,
100022202000,
100022201000,
100022202000,
221,
17,
008,
33,
33,
100022200020,
100022202000,
100022202000,
100022202000,
322320,
320322,
302302,
300000200200200000300000200020002000,
100022202000,
221,
100022202000,
2,
100022202000,
221,
100022202000,
2,//76
#GOGOEND
11,
22,
11,
22,
11,
22,
11,
22,
121010,
121010,
121010,
121010,
102202,
122,
102120,
202120,
102120,
202120,
102120,
202120,
102202,
122,
102120,
202120,
102120,
202120,
102120,
1,//104
#GOGOSTART
101100101,
010200200,
101100101,
010200200,
101010202,
020200200,
100100101,
101101010,
101100101,
010200200,
101100101,
010200200,
5,
000000000000000000000008000000000000,
7,
8,
101100101,
010101010,
202200202,
020202020,
5,
000000000000000000000008000000000000,
3,
,
101100101,
010201020,
202200201,
020201020,
7,
,
,
8,//136
#GOGOEND
311110,
010111,
33,
600000000000000000000000000000000008,
03,
,
,
,
,
,
,
,
#END

COURSE:Normal
LEVEL:6
BALLOON:10,7,10,5,15
#START
#MEASURE 3/4
1,
2,
1,
2,
1,
2,
12,
12,
100002000,
100002000,
1,
2,
102,
202,
2,
,
100002000,
100002000,
1,
2,
102,
202,
2,
,
1,
1,
201001,
,
1,
1,
200011,
011020,
12,
102,
001001,
020,
12,
102,
002011,
011001,
101103,
,
,
,//44
#GOGOSTART
102202,
220,
102,
102,
7,
008,
33,
33,
102,
102,
1,
221,
17,
008,
33,
33,
102202,
220,
102,
102,
33,
33,
33,
33,
101,
221,
1,
2,
101,
221,
1,
2,//76
#GOGOEND
11,
22,
11,
22,
11,
22,
11,
22,
111,
222,
111,
222,
102202,
220,
122,
222,
1,
2,
122,
122,
102202,
220,
122,
122,
1,
2,
122,
1,//104
#GOGOSTART
111,
022,
111,
022,
7,
008,
,
,
111,
022,
111,
022,
5,
000000000000000000000008000000000000,
7,
8,
111,
012,
111,
012,
5,
000000000000000000000008000000000000,
3,
,
111,
012,
111,
012,
7,
,
,
8,//136
#GOGOEND
3,
,
33,
600000000000000000000000000000000008,
03,
,
,
,
,
,
,
,
#END

COURSE:Easy
LEVEL:4
BALLOON:8,5,10,5,15
#START
#MEASURE 3/4
1,
2,
1,
2,
1,
2,
11,
11,
1,
1,
1,
2,
1,
2,
2,
,
1,
1,
1,
2,
1,
2,
2,
,
1,
1,
001001,
,
1,
1,
000011,
011000,
1,
1,
001001,
,
1,
1,
000011,
011001,
101103,
,
,
,//44
#GOGOSTART
1,
220,
102,
202,
7,
008,
33,
33,
102,
202,
2,
221,
17,
008,
33,
33,
1,
220,
102,
102,
33,
33,
33,
33,
1,
221,
1,
2,
1,
221,
1,
2,//76
#GOGOEND
11,
11,
22,
22,
11,
11,
22,
22,
111,
111,
111,
111,
1,
220,
102,
2,
1,
2,
1,
2,
1,
220,
102,
2,
1,
2,
1,
,//104
#GOGOSTART
101,
010,
101,
010,
7,
008,
,
,
101,
010,
101,
010,
5,
000000000000000000000008000000000000,
7,
8,
101,
010,
202,
020,
5,
000000000000000000000008000000000000,
3,
,
101,
010,
202,
020,
7,
,
,
8,//136
#GOGOEND
3,
,
33,
600000000000000000000000000000000008,
03,
,
,
,
,
,
,
,
#END
