//TJADB Project
TITLE:The Carnivorous Carnival
TITLEJA:The Carnivorous Carnival
SUBTITLE:--AJURIKA
BPM:168
WAVE:The Carnivorous Carnival.ogg
OFFSET:-1.701
DEMOSTART:40.267

COURSE:Oni
LEVEL:9
SCOREINIT:400
SCOREDIFF:90
#START
1022202212212210,
1220102012201020,
1220102022101020,
1220102012201020,
100000202020100000200000100200200200100000200000,
1000102012201020,
1220102012221020,
1220102022101020,
3003003000202020,
1110201110201110,
2011102011102011,
1020111020111020,
1110202001102220,
1211102002221020,
1211102002221020,
1211102002221020,
3030003000222010,
2220102220102220,
1022201022201022,
2010222010222010,
1220101002201110,
1122201001222210,
1111201001112210,
111222,
211122,
5,
000000000000000000000000000000000008000000000000,
#GOGOSTART
1220202012212210,
1220112012211210,
1220202012212210,
1220112012211210,
1120221012111220,
1120221012111210,
1120221012111220,
1110201110112022,
1110202212101120,
1110222212101020,
1110202212121120,
1110222212101020,
1210222210112010,
1210222210112020,
1110221102212110,
200200100000100200200100100100100100100100101010,
1,
1110201210221110,
1110202210121220,
1110201210221110,
1110202212101010,
1110222212101212,
1111222212122211,
1111222211100000,
1000102211221020,
1120102211201222,
1220102211201222,
1120102211201212,
1220102211201211,
1120202211202220,
1110201201112210,
1120201101112212,
#GOGOEND
1000102012201020,
1220102022101020,
1220102012201020,
1220102022121020,
1000100020222220,
0022102220200020,
1000100020222220,
3030003000102011,
1220102012201020,
1220102022101020,
1220102012201020,
1220102022121020,
3030000030300000,
3020302030203022,
111222,
211122,
5,
000000000000000000000000000000000000000000000008,
#END

COURSE:Hard
LEVEL:7
BALLOON:6,7,8,9
SCOREINIT:560
SCOREDIFF:138
#START
,
1220100010001000,
1220100010001000,
1220100010001000,
1220100010001000,
1220100012201000,
1220100012201000,
1220100012201000,
1001001000202020,
1000200011102000,
1000200011102000,
1000200011102000,
1110200011102000,
1000200012202000,
1000200012202000,
1000200012202000,
33030222,
1000200012202000,
1000200012202000,
1000200012202000,
1000200012202020,
1000200011102020,
1000200011102020,
111111,
222222,
5000000000000008,
,
#GOGOSTART
1220002012200020,
1220002012200020,
1220002012200020,
1220002012200020,
1110002012200020,
1110002012200020,
1110002012200020,
1110001010112010,
1110200011101020,
1110200011101020,
1110200011101020,
1110200011101020,
1110102011102000,
1110102011102000,
1110102011102000,
1110102011102020,
500000000000080,
500000000000080,
500000000000080,
500000000000080,
1110200011102020,
1110200011102020,
1110200011102020,
1110200011100000,
78,
78,
78,
78,
1110202011102020,
1110202011102020,
1110101100111110,
100100100100500000008000,
#GOGOEND
1000100012201000,
1000100012201000,
1000102012201000,
1000102012201000,
1000100020222220,
00102202,
1000100020222220,
11010122,
1220100010001000,
1220100010001000,
1220100010001000,
1220100010001000,
11001100,
1000100010001011,
111111,
222222,
5000000000000000,
0000000000000008,
,
,
#END

COURSE:1
LEVEL:6
BALLOON:6,6,6,6,6,6,6,6
#START
,
3011,
1011,
1011,
1112,
1011,
1011,
1011,
30000220,
30100220,
10100220,
10100220,
10100220,
1012,
1012,
1012,
30000110,
20200110,
20200110,
20200110,
1012,
1012,
1012,
11,
111111,
500000000000000000000008,
,
#GOGOSTART
1112,
1112,
1112,
1112,
1212,
1212,
1212,
1212,
1012,
1112,
1112,
1112,
1112,
1112,
1111,
10101110,
78,
78,
78,
78,
1112,
1112,
1112,
11101100,
78,
78,
78,
78,
1211,
1211,
1211,
11101110,
#GOGOEND
1012,
1012,
1012,
1012,
12,
02,
02,
30000220,
3112,
1112,
1112,
1112,
11001100,
1111,
333333,
444444,
6000000000000000,
000000000000000000000008,
,
,
#END

COURSE:0
LEVEL:4
BALLOON:4,4,4,4,4,4,4,4
#START
,
3,
1,
1,
12,
32,
12,
12,
1001001000002000,
1111,
11,
1111,
1011,
1011,
1011,
1011,
30000220,
10000220,
10000220,
10000220,
10000220,
12,
12,
11,
111111,
500000000000000000000008,
,
#GOGOSTART
1111,
1110,
1111,
1110,
2222,
2220,
2222,
2220,
1111,
1110,
1111,
1110,
2222,
2220,
2222,
2033,
78,
78,
78,
78,
1111,
1111,
1111,
1130,
78,
78,
78,
78,
1110,
2220,
1111,
3340,
#GOGOEND
1011,
1011,
1011,
1011,
10000220,
10000220,
10000220,
2004,
1111,
12,
1111,
12,
11001100,
1111,
11,
111111,
5000000000000000,
000000000000000000000008,
,
,
#END
