//TJADB Project
TITLE:Ai want U
TITLEJA:哀 want U
SUBTITLE:--Kaneko Chiharu
SUBTITLEJA:かねこちはる
BPM:87
WAVE:Ai want U.ogg
OFFSET:-2.787
DEMOSTART:72.578

COURSE:Oni
LEVEL:10
BALLOON:5,2,2,2,2
SCOREINIT:300
SCOREDIFF:80
#START
#MEASURE 2/4
#SCROLL 2
10000000000000002200000010000000,
00001000100000002200200020002000,
10000000000000002200200010000000,
0000100010001000
#LYRIC Always true 2200000020000000,
10000000000000002200000010000000,
00001000100000002200200020002000,
#LYRIC 10000000000010002200200000001000,
200000000000200000000000200020002000100000000000200200000000100000000000400000000000000000000000,
#BPMCHANGE 174
#MEASURE 4/4
#SCROLL 1
#LYRIC I want you 3002202010022010,
1002202020022020,
#LYRIC I want you (to make believe) 3002202010022010,
1002202020002040,
#LYRIC I,
30121020
#LYRIC I, I,
30121020,
#MEASURE 13/16
#LYRIC I, I, I,
30000000100020001000000020000000
#LYRIC I, I, I, I,
3000000010000000
#BPMCHANGE 43.5
#SCROLL 4
0220,
#BPMCHANGE 174
#MEASURE 4/4
#SCROLL 1
#LYRIC I, I, I, I, I,
1222
#LYRIC I, I, I, I, I, I,
1122
#LYRIC I, I, I, I, I, I, I,
1112
#LYRIC I, I, I, I, I, I, I, I,
1111,
#LYRIC Always al- 500000000000000008000000100100100000400000000000,
#LYRIC I want you 30000000101010102200000010001000,
000000000000100000200000100000000000200000000000200200002000000020000000100010001000100000000000,
#LYRIC to make believe it's the first time 10000000100010002200000010001000,
200000000000100000200000100000000000200000000000
#LYRIC and I gotta say to you 200200002000000020000000200020002000100000000000,
10000000101010102200000010001000,
000000000000100000200000100000000000200000000000200200002000000020000000100010001000100000000000,
#LYRIC love, find a way that's always true 1010220212102202,
100100200100200200000200100000100100101010101010,
#MEASURE 13/16
#LYRIC IIIIIIIIIIIIIIIIIIIIIIIIIIIIIIII 700000000000
#BPMCHANGE 43.5
#SCROLL 4
800
#BPMCHANGE 174
#SCROLL 1
#LYRIC I want you 100000000000200000001000,
#MEASURE 4/4
000201102001,
#LYRIC to make believe it's the first time 002202101202,
101010202020
#LYRIC and I gotta say to you 102020111111,
#BPMCHANGE 43.5
#MEASURE 5/8
#SCROLL 4
0000
#BPMCHANGE 174
#SCROLL 1
2200000010001000,
#MEASURE 4/4
000000000000100000200000100000000000200000000000200200002000000020000000100010001000100000000000,
#LYRIC love, find a way- 100000100000200200000200100200100000101010101010,
#GOGOSTART
#LYRIC Always true,
1002102010210120,
#LYRIC Always true, always true,
1002102010210120,
#LYRIC Always true, always true, always true,
1002102010210120,
#MEASURE 5/8
#LYRIC Always 10021020
#GOGOEND
#BPMCHANGE 43.5
#SCROLL 4
#LYRIC (Always) 00,
#GOGOSTART
#BPMCHANGE 174
#MEASURE 4/4
#SCROLL 1
#LYRIC 300000000200100000200000102020200000100000200000,
100200200200100000200000101010100000700000800000,
300000000200100000200000102020200000100100200200,
100000200020100020002000
#LYRIC (Always) 100200200200101010100000,
#LYRIC 300000000200100000200000102020200000100000200000,
100200200200100000200000101010100000700000800000,
#GOGOEND
#LYRIC I want you 30000000000000002200000010001000,
0000100020201010
#LYRIC (Always true) 2200000020000000,
#GOGOSTART
#LYRIC 300000000200100000200000102020200000100000200000,
100200200200100000200000101010100000700000800000,
300000000200100000200000102020200000100100200200,
#MEASURE 13/16
#LYRIC (Alw-) 100000200020100020002000101010101010
#GOGOEND
#BPMCHANGE 43.5
#SCROLL 4
200,
000
#GOGOSTART
#BPMCHANGE 174
#SCROLL 1
300000000000102020200000100000200000,
#MEASURE 4/4
100200200200100000200000101010100000700000800000,
#GOGOEND
#LYRIC Say, say to you- 30000000000000002200000010001000,
#MEASURE 41/64
00000000100000002000200020002000
#BPMCHANGE 87
#SCROLL 2
#LYRIC 22
#BPMCHANGE 43.5
#SCROLL 4
0000000,
#GOGOSTART
#BPMCHANGE 174
#MEASURE 4/4
#SCROLL 1.22
1112012221021112,
0020111211221222,
100000200200000000500000000000000008000000200100,
100000200200100100200100100000200000202020200100,
1112012221021112,
0010211122112221,
000000000000500000000000000008000000100000200200,
100200200100200200100200200100200200101010101010,
2001201222102112,
0020111211221222,
100000200200000000500000000000000008000000200100,
100000200200100100200100100000200000202020200100,
1112012221021112,
000000100000200200100100200200200100500000008000,
0211221122112211,
000200200100200200100200200100200200101010101010,
#GOGOEND
#BPMCHANGE 43.5
#MEASURE 13/16
#SCROLL 4
#LYRIC I want you 000
#GOGOSTART
#BPMCHANGE 174
#SCROLL 1
300000000200100000202020100000200000,
#MEASURE 4/4
100000200100100200000100200000100000201010200000,
1011
#LYRIC It's the first time! 201020122010,
200000100100200000101010200000200000100000202020,
#LYRIC 100000200000100200000200
#LYRIC Say to you 100000202020100000200000,
100000200100100200000100200000100000
#LYRIC Say to you, say to you! 201010200000,
3020112030201220,
100100200200100100200200101010101010200000000000,
#GOGOEND
#LYRIC
#MEASURE 13/16
200000002000000020000000100000001000000010000000
#BPMCHANGE 43.5
#SCROLL 4
200200000000
#GOGOSTART
#BPMCHANGE 174
#SCROLL 1
#LYRIC want you 300000000000000000000000200000002000000020000000100000000000000000000000200000000000000000000000,
#MEASURE 4/4
100000200100100200000100200000100000201010200000,
#LYRIC love, love, love, love, love... 1011201020122010,
200000100100200000101010200000200000100000202020,
100000200100100200000200100100200000100000201010,
#LYRIC Say to you 200000100200200100000100200200100000102020100000,
#LYRIC Love will find,
30021020
#LYRIC Love will find, love will find,
30021010,
#LYRIC Love will find, love will find, love will find,
30021020
#LYRIC Love will find, love will find, love will find, love will find,
30021010,
#LYRIC Love will find,
30121022
#LYRIC Love will find, love will find,
10121022,
#MEASURE 5/8
#LYRIC Love will find, love will find, love will find,
12121122
#GOGOEND
#BPMCHANGE 43.5
#SCROLL 4
#LYRIC (Love will find) 00,
#GOGOSTART
#BPMCHANGE 174
#MEASURE 4/4
#SCROLL 1.22
#LYRIC 3022012030220120,
#MEASURE 13/16
101020201010202010201020
#GOGOEND
#BPMCHANGE 43.5
#SCROLL 4
02,
#GOGOSTART
#BPMCHANGE 174
#MEASURE 4/4
#SCROLL 1.5
1211212211212212,
#MEASURE 5/8
111111111111
#GOGOEND
#BPMCHANGE 43.5
#SCROLL 6
#LYRIC Always true. 200,
#BPMCHANGE 87
#MEASURE 2/4
#SCROLL 2
10000000000000002200000010000000,
#LYRIC 00001000100000002200200020002000,
10000000000000002200200010000000,
#LYRIC (Love will find, love will find) 00000000000010002200200020000000,
#LYRIC (Always, always, always, always) 10000000100000002200000010000000,
00001000100000002200200020002000,
#LYRIC 10000000100010002200200010000000,
200000000000200000000000200020002000100000000000200200000000100000000000400000000000000000000000,
#END

COURSE:Hard
LEVEL:8
BALLOON:4,10,3,3,5,5,5,4
SCOREINIT:420
SCOREDIFF:100
#START
#MEASURE 2/4
#SCROLL 2
1021,
01102000,
1021,
01102020,
1021,
01102000,
12,
70082040,
#BPMCHANGE 174
#MEASURE 4/4
#SCROLL 1
3002200010022010,
1002200020022000,
3002200010022010,
1002200020002040,
3001101030011010,
#MEASURE 13/16
300110103010
#BPMCHANGE 43.5
#SCROLL 4
0,
#BPMCHANGE 174
#MEASURE 4/4
#SCROLL 1
1110111022202220,
700000000000000000000000000000000000080000000000,
30012011,
01012000,
10112012,
10102022,
10012011,
01012000,
1010200011102000,
1110200010111000,
#MEASURE 13/16
700000000000
#BPMCHANGE 43.5
#SCROLL 4
800
#BPMCHANGE 174
#SCROLL 1
200000000000100000001000,
#MEASURE 4/4
000100202001,
001102200101,
100200111700,
#BPMCHANGE 43.5
#MEASURE 5/8
#SCROLL 4
8
#BPMCHANGE 174
#SCROLL 1
2011,
#MEASURE 4/4
01012000,
1010200011103000,
#GOGOSTART
1001102010200020,
1001102010200020,
1001102010200020,
#MEASURE 5/8
10011020
#GOGOEND
#BPMCHANGE 43.5
#SCROLL 4
00,
#GOGOSTART
#BPMCHANGE 174
#MEASURE 4/4
#SCROLL 1
3001102010001000,
1111100011102000,
3001102010001110,
200200202020200000300000,
3001102010001000,
1111100011102000,
#GOGOEND
30002011,
01012020,
#GOGOSTART
3001102010001000,
1111100011102000,
3001102010001110,
#MEASURE 13/16
200000200000200020002000100000000000
#GOGOEND
#BPMCHANGE 43.5
#SCROLL 4
400,
0
#GOGOSTART
#BPMCHANGE 174
#SCROLL 1
300010001000,
#MEASURE 4/4
1111100011102000,
#GOGOEND
30002011,
#MEASURE 41/64
00000000100000000000000010001000
#BPMCHANGE 87
#SCROLL 2
20
#BPMCHANGE 43.5
#SCROLL 4
0000000,
#GOGOSTART
#BPMCHANGE 174
#MEASURE 4/4
#SCROLL 1.22
1111002222001111,
0000111011102011,
100000100000000000500000000000000008000000100100,
7000000080202220,
1111002222001111,
0000111022201111,
000000000000500000000000000000000008000000200200,
2002007000000080,
20220201,
0000111011102011,
100000100000000000500000000000000008000000100100,
7000000080202220,
1111002222001111,
000000000000100100100000200200200000500000008000,
000100100000100100000100100000100100500000008000,
000200200000200200000200200000200200600000008000,
#GOGOEND
#BPMCHANGE 43.5
#MEASURE 13/16
#SCROLL 4
0
#GOGOSTART
#BPMCHANGE 174
#SCROLL 1
300010111020,
#MEASURE 4/4
1020100010202220,
12101210,
1020101110200011,
1020100010111020,
1020100010202220,
11221122,
1110111011111000,
#GOGOEND
#MEASURE 13/16
2222
#BPMCHANGE 43.5
#SCROLL 4
2
#GOGOSTART
#BPMCHANGE 174
#SCROLL 1
30001020,
#MEASURE 4/4
1020100010202220,
12101210,
1020101110200011,
1020100010201022,
2020100010201110,
3001101030011010,
3001101030011010,
31113111,
#MEASURE 5/8
11101110
#GOGOEND
#BPMCHANGE 43.5
#SCROLL 4
00,
#GOGOSTART
#BPMCHANGE 174
#MEASURE 4/4
#SCROLL 1.22
1110100011101000,
#MEASURE 13/16
111011101111
#GOGOEND
#BPMCHANGE 43.5
#SCROLL 4
0,
#GOGOSTART
#BPMCHANGE 174
#MEASURE 4/4
#SCROLL 1.5
1110111022202220,
#MEASURE 5/8
11111111
#GOGOEND
#BPMCHANGE 43.5
#SCROLL 6
10,
#BPMCHANGE 87
#MEASURE 2/4
#SCROLL 2
1021,
01102000,
1021,
01102000,
1121,
01102000,
1021,
70082040,
#MEASURE 4/4
,
#END

COURSE:Normal
LEVEL:6
BALLOON:6,3,5,6,4,3
SCOREINIT:500
SCOREDIFF:128
#START
#BPMCHANGE 87
#MEASURE 2/4
#SCROLL 2
12,
0120,
12,
0122,
12,
0120,
12,
0024,
#BPMCHANGE 174
#MEASURE 4/4
#SCROLL 1
30201021,
1202,
30201021,
10200022,
3232,
#MEASURE 13/16
300020003000
#BPMCHANGE 43.5
#SCROLL 4
0,
#BPMCHANGE 174
#MEASURE 4/4
#SCROLL 1
11102220,
700000000000000000000000000000000000080000000000,
30002011,
01002000,
10102011,
1120,
10002011,
01002000,
10201120,
1230,
#MEASURE 13/16
700000000000
#BPMCHANGE 43.5
#SCROLL 4
800
#BPMCHANGE 174
#SCROLL 1
200000000000100000001000,
#MEASURE 4/4
0120,
1121,
100000000000100000000000500000000000000000000008,
#BPMCHANGE 43.5
#MEASURE 5/8
#SCROLL 4
0
#BPMCHANGE 174
#SCROLL 1
2011,
#MEASURE 4/4
01002000,
10201130,
#GOGOSTART
10101202,
10101202,
10101202,
#MEASURE 5/8
1010
#GOGOEND
#BPMCHANGE 43.5
#SCROLL 4
0,
#GOGOSTART
#BPMCHANGE 174
#MEASURE 4/4
#SCROLL 1
10111020,
500000000008000000000000300000000000000000000000,
10111040,
22202030,
10111020,
500000000008000000000000300000000000000000000000,
#GOGOEND
30002011,
0022,
#GOGOSTART
10111020,
500000000008000000000000300000000000000000000000,
10111040,
#MEASURE 13/16
202020003000
#GOGOEND
#BPMCHANGE 43.5
#SCROLL 4
4,
0
#GOGOSTART
#BPMCHANGE 174
#SCROLL 1
300010001000,
#MEASURE 4/4
500000000008000000000000300000000000000000000000,
#GOGOEND
30002011,
#MEASURE 41/64
00000000000000000000000000000000
#BPMCHANGE 87
#SCROLL 2
40
#BPMCHANGE 43.5
#SCROLL 4
0000000,
#GOGOSTART
#BPMCHANGE 174
#MEASURE 4/4
#SCROLL 1.22
12012012,
00111120,
100000100000000000500000000000000000000008000000,
70008220,
12012012,
00111122,
000000000000500000000000000000000008000000000000,
700000000000000000000000000000000000080000000000,
10110202,
00111120,
100000100000000000500000000000000000000008000000,
70008220,
12012012,
00112230,
000500000000000000000000000000000000000000008000,
000600000000000000000000000000000000000000008000,
#GOGOEND
#BPMCHANGE 43.5
#MEASURE 13/16
#SCROLL 4
0
#GOGOSTART
#BPMCHANGE 174
#SCROLL 1
300010001010,
#MEASURE 4/4
10101022,
10201120,
10201202,
10101011,
10101022,
11102220,
100000100000100000100000500000000008000000000000,
#GOGOEND
#MEASURE 13/16
7000
#BPMCHANGE 43.5
#SCROLL 4
8
#BPMCHANGE 174
#SCROLL 1
30001010,
#MEASURE 4/4
10101022,
10201120,
10201202,
10201121,
10201222,
3232,
3232,
11101110,
#MEASURE 5/8
1111
#GOGOEND
#BPMCHANGE 43.5
#SCROLL 4
0,
#GOGOSTART
#BPMCHANGE 174
#MEASURE 4/4
#SCROLL 1.22
3333,
#MEASURE 13/16
101010103000
#GOGOEND
#BPMCHANGE 43.5
#SCROLL 4
0,
#GOGOSTART
#BPMCHANGE 174
#MEASURE 4/4
#SCROLL 1.5
11112222,
#MEASURE 5/8
1111
#GOGOEND
#BPMCHANGE 43.5
#SCROLL 6
0,
#BPMCHANGE 87
#MEASURE 2/4
#SCROLL 2
12,
0120,
12,
0120,
1120,
0120,
12,
0024,
#MEASURE 4/4
,
#END

COURSE:Easy
LEVEL:5
BALLOON:4,2,4,4,4,2
SCOREINIT:340
SCOREDIFF:88
#START
#MEASURE 2/4
#SCROLL 2
12,
02,
12,
0022,
12,
02,
12,
0044,
#BPMCHANGE 174
#MEASURE 4/4
#SCROLL 1
31,
1,
31,
1002,
33,
#MEASURE 13/16
300000004000
#BPMCHANGE 43.5
#SCROLL 4
0,
#BPMCHANGE 174
#MEASURE 4/4
#SCROLL 1
3344,
70000800,
30002011,
02,
1021,
14,
10002011,
02,
1212,
1230,
#MEASURE 13/16
700000000000
#BPMCHANGE 43.5
#SCROLL 4
800
#BPMCHANGE 174
#SCROLL 1
200000000000100000001000,
#MEASURE 4/4
02,
1021,
100000000000000000000000500000000000000000000008,
#BPMCHANGE 43.5
#MEASURE 5/8
#SCROLL 4
0
#BPMCHANGE 174
#SCROLL 1
2011,
#MEASURE 4/4
02,
1214,
#GOGOSTART
3330,
3330,
3330,
#MEASURE 5/8
3030
#GOGOEND
#BPMCHANGE 43.5
#SCROLL 4
0,
#GOGOSTART
#BPMCHANGE 174
#MEASURE 4/4
#SCROLL 1
3111,
11103000,
3111,
2024,
3111,
11103000,
#GOGOEND
30002011,
02,
#GOGOSTART
3111,
11103000,
3111,
#MEASURE 13/16
200000002000
#GOGOEND
#BPMCHANGE 43.5
#SCROLL 4
4,
0
#GOGOSTART
#BPMCHANGE 174
#SCROLL 1
300010001000,
#MEASURE 4/4
11103000,
#GOGOEND
30002011,
#MEASURE 41/64
00000000000000000000000000000000
#BPMCHANGE 87
#SCROLL 2
40
#BPMCHANGE 43.5
#SCROLL 4
0000000,
#GOGOSTART
#BPMCHANGE 174
#MEASURE 4/4
#SCROLL 1.22
11011011,
0222,
500000000000000000000000000000000008000000000000,
70000800,
11011011,
0222,
000000000000500000000000000000000008000000000000,
70000800,
10110101,
0222,
500000000000000000000000000000000008000000000000,
70000800,
11011011,
0222,
000500000000000000000000000000000000000000008000,
000600000000000000000000000000000000000000008000,
#GOGOEND
#BPMCHANGE 43.5
#MEASURE 13/16
#SCROLL 4
0
#GOGOSTART
#BPMCHANGE 174
#SCROLL 1
300010001010,
#MEASURE 4/4
1110,
10101110,
1120,
10101011,
1110,
11101110,
11103000,
#GOGOEND
#MEASURE 13/16
7000
#BPMCHANGE 43.5
#SCROLL 4
8
#GOGOSTART
#BPMCHANGE 174
#SCROLL 1
30001010,
#MEASURE 4/4
1110,
10101110,
1120,
10101110,
10101110,
33,
33,
3333,
#MEASURE 5/8
1111
#GOGOEND
#BPMCHANGE 43.5
#SCROLL 4
0,
#GOGOSTART
#BPMCHANGE 174
#MEASURE 4/4
#SCROLL 1.22
3333,
#MEASURE 13/16
300030003000
#GOGOEND
#BPMCHANGE 43.5
#SCROLL 4
0,
#GOGOSTART
#BPMCHANGE 174
#MEASURE 4/4
#SCROLL 1.5
11111111,
#MEASURE 5/8
500000000000000000000008
#GOGOEND
#BPMCHANGE 43.5
#SCROLL 6
000000,
#BPMCHANGE 87
#MEASURE 2/4
#SCROLL 2
12,
02,
12,
02,
12,
02,
12,
0044,
#MEASURE 4/4
,
#END
