//TJADB Project
TITLE:Dangan Notes
TITLEJA:ダンガンノーツ
SUBTITLE:--cosMo@bousouP
SUBTITLEJA:cosMo@暴走P
BPM:105
WAVE:Dangan Notes.ogg
OFFSET:-2.394
DEMOSTART:32.106

COURSE:Edit
LEVEL:10
BALLOON:2
SCOREINIT:230
SCOREDIFF:70
#START
11011000,
11011000,
11011000,
10001000000010001000002220004000,
1010401212104002,
1010401212104012,
1010401212104002,
10001000400010201020100040002220,
#MEASURE 2/4
1,
#BPMCHANGE 210
#MEASURE 4/4
1001201211112222,
1001201011212010,
1001221010121222,
1001201011212010,
1001221011112120,
1001201022112010,
1001221010112120,
1001201022112010,
100010001000100000100000200000000000100100100000100000100000200000200000200000200000200000200000,
1101221011212010,
1101211010121222,
1101221012112010,
10100010200011102020102020102000,
2201221022112010,
1101211010112120,
2201221021122010,
100010001000100000100000100000100000200200200000100000100000200000200000200000200000100000100000,
#GOGOSTART
100100200000200000101010200000200000100000400000,
00002020111010102020202010101010,
101010200000200000100100200000200000100000400000,
000000000000100000100000200200200000100000100000200000001000100020000000100000002000000020000000,
000000200000300000101010200000200100100000400000,
00002020111010102000102000102000,
101010200000200000100100200000200000100000400000,
000000000000100000100000200200200000100000100000200000002000200010000000200000001000000010000000,
#GOGOEND
1110201211102010,
1101211011102011,
1210201211102012,
10101010200022201020101020001000,
1210201211102011,
1101211012102011,
1210201212112211,
100010001000100000100000100000100000100100100000100000100000100010001000100000100000100000100000,
200222100222,
100222122122,
100222100222,
200000000000200020002000100100100100100000000000,
#GOGOSTART
1122112211221122,
1122121211221212,
101010200200101010200200101010200200101010200200,
#GOGOEND
0004,
#GOGOSTART
1001201010221222,
1011201010212110,
1022221222112212,
100010001000100000100000200000000000200200200000100000200000100000100000200000000000100000000000,
1011201210212021,
1011201212112010,
101010100000202020202020200000100000200200100000,
100010001000200000100000200000000000200200200200200000000000200000200000100000100000200000200000,
1012201211221222,
500000000000080000100200200100200100100200200000,
324132324132,
324132324131,
1110401112104012,
1110401212112010,
100100100010001000100000100000100000100100100010001000100000100000100000100000100000100000100000,
20002000202022222020202010202020,
#GOGOEND
1020221120102210,
1021221020112210,
1020221120102210,
200020002000100000100000100000200000200200200000100000100000100000100000200000000000100000000000,
1020221210102210,
100000200100102020100100200200100100200200100000,
1020221210102210,
200020002000100000100000100000200000200200200200100000000000100000200000200000200000200000200000,
#GOGOSTART
1012201211221222,
500000000000008000100200200100200100100200100000,
314142314142,
314142314131,
1121201020112210,
2221221111221222,
1111111111111111,
11111111111111111111111700080000,
#GOGOEND
1001201011212010,
1001221010121222,
1001201011212010,
100010001000200000200000100000200000100100100100100000200000200000200000100000200000200000000000,
#GOGOSTART
1202112011221020,
1102122010121222,
1202112012211020,
200200200000100000200000200000100000200200100000200000200000100000200000200000100000200020002000,
100100200000200000101010200000200000100000400000,
000000101000400000000000200200100200100100200100,
101010200000200000100100200000200000100000400000,
000110400000111010112020,
#GOGOEND
3,
,
,
,
1111111111111112,
#BPMCHANGE 105
#END

COURSE:Oni
LEVEL:10
BALLOON:2,2,2
SCOREINIT:360
SCOREDIFF:88
#START
11011000,
11011000,
11011000,
10001000000010001000002220002000,
11200120,
1010200000102002,
11200120,
10001000200000000000100020002220,
#MEASURE 2/4
1,
#BPMCHANGE 210
#MEASURE 1/16
,
#SCROLL 1.12
,
#SCROLL 1.24
,
#SCROLL 1.39
,
#SCROLL 1.55
,
#SCROLL 1.72
,
#SCROLL 1.92
,
#SCROLL 2.14
,
#SCROLL 2.39
,
#SCROLL 2.66
,
#SCROLL 2.97
,
#SCROLL 3.31
,
#SCROLL 3.69
,
#MEASURE 3/16
#SCROLL 4.12
,
#MEASURE 4/4
#SCROLL 1
1001201011202010,
1001201010112222,
1001201011202010,
1001201011112010,
1001201022102010,
1001201011202010,
1001201022102010,
1111201111222222,
1001201011202010,
1001221010112222,
1001201011202010,
1001221010221120,
1001201022102010,
1001221011202010,
1001201022102010,
1111202211222211,
#GOGOSTART
12212214,
0022111122221111,
12212214,
000000100100200200100100200020002000200020002000,
02312214,
0022110120120120,
12212214,
000000100100200200100100200020002000200020002000,
#GOGOEND
1000201110102010,
1001201110102010,
1020201110102010,
1011202211112010,
1000201110102010,
1001201110102010,
1020201110102022,
1111111111111111,
200222200222,
200222222222,
200222200222,
200000000000200020002000100100100100100000000000,
#GOGOSTART
11111111,
1011111110101010,
1122112211221122,
#GOGOEND
0004,
#GOGOSTART
1001201010221122,
1011201010112010,
1022222222112211,
1010201011112010,
1011201010112010,
1011201110112010,
101010100000500000000008000000100000200200100000,
100000100100200000202020200000200200100100200200,
1011202010221122,
500000000008000000100100200000100200000100200000,
414141414141,
414141414141,
1010401110104011,
1010401110104010,
1111111111111111,
2020222222221222,
#GOGOEND
1020201020102210,
1001221020102010,
1020201020102210,
2211202211112010,
1020201020102210,
1011201020102010,
1020201020102210,
2211222210112222,
#GOGOSTART
1011202010221122,
500000000008000000100100200200100100100100100000,
323232323232,
323232323232,
1011201020102210,
2211221111221122,
1111111111111111,
2222222222227080,
#GOGOEND
1001201011202010,
1001221010112222,
1001201011202010,
1011221012222220,
#GOGOSTART
1002102010221020,
1002112010221122,
1002102010221020,
2211112222111122,
12212214,
000000508000700000800000200200200200100100100100,
12212214,
000000508000700000800000100010001000200020002000,
#GOGOEND
#MEASURE 1/32
3,
#BARLINEOFF
#MEASURE 1/4
,
#BARLINEON
#SCROLL 0.97
,
#SCROLL 0.95
,
#SCROLL 0.92
#MEASURE 7/32
,
#BARLINEOFF
#MEASURE 1/32
#SCROLL 1
,
#BARLINEON
#SCROLL 0.9
#MEASURE 1/4
,
#SCROLL 0.87
,
#SCROLL 0.84
,
#SCROLL 0.82
#MEASURE 7/32
,
#BARLINEOFF
#MEASURE 1/32
#SCROLL 1
,
#BARLINEON
#MEASURE 1/4
#SCROLL 0.79
,
#SCROLL 0.77
,
#SCROLL 0.74
,
#SCROLL 0.71
#MEASURE 7/32
,
#BARLINEOFF
#MEASURE 1/32
,
#BARLINEON
#SCROLL 0.69
#MEASURE 1/4
,
#SCROLL 0.66
#MEASURE 7/32
,
#BARLINEOFF
#MEASURE 1/32
#SCROLL 1
508,
#BARLINEON
#SCROLL 0.64
,
#BARLINEOFF
#MEASURE 1/16
#SCROLL 1.14
580,
#SCROLL 1.3
580,
#SCROLL 1.48
580,
#MEASURE 1/32
#SCROLL 1.69
508,
#BARLINEON
#SCROLL 0.61
,
#MEASURE 1/16
#BARLINEOFF
#SCROLL 1.93
580,
#SCROLL 2.2
580,
#SCROLL 2.5
580,
#MEASURE 1/32
#SCROLL 2.85
508,
#BARLINEON
#SCROLL 0.58
,
#MEASURE 1/16
#BARLINEOFF
#SCROLL 3.25
580,
#SCROLL 3.71
580,
#SCROLL 4.23
580,
#SCROLL 4.82
#MEASURE 1/32
508,
#SCROLL 0.56
#BARLINEON
,
#BARLINEOFF
#MEASURE 1/16
#SCROLL 5.49
580,
#SCROLL 6.26
580,
#SCROLL 7.14
580,
#MEASURE 1/32
#SCROLL 8.14
508,
#BARLINEON
#SCROLL 0.53
,
#BARLINEOFF
#MEASURE 1/16
#SCROLL 9.27
580,
#SCROLL 10.57
580,
#SCROLL 12.05
580,
#MEASURE 1/32
#SCROLL 13.74
508,
#BARLINEON
#SCROLL 0.51
#MEASURE 1/32
,
#BARLINEOFF
#MEASURE 1/16
#SCROLL 15.66
580,
#SCROLL 17.86
580,
#SCROLL 19
608,
#MEASURE 1/64
#BPMCHANGE 105
#SCROLL 2
,
#BARLINEON
#SCROLL 0.96
#MEASURE 1/8
,
#SCROLL 0.91
,
#SCROLL 0.86
,
#MEASURE 7/64
#SCROLL 0.8
,
#BARLINEOFF
#MEASURE 1/64
#SCROLL 2
,
#BARLINEON
#MEASURE 1/8
#SCROLL 0.75
,
#SCROLL 0.7
,
#SCROLL 0.65
,
#SCROLL 0.6
#MEASURE 7/64
,
#BARLINEOFF
#MEASURE 4/4
#SCROLL 2
,
#END

COURSE:Hard
LEVEL:8
BALLOON:5,9,8,5,9,9
SCOREINIT:490
SCOREDIFF:115
#START
11011000,
11011000,
11011000,
11011022,
11200120,
11200120,
11200120,
11200122,
#MEASURE 2/4
3,
#BPMCHANGE 210
#MEASURE 1/16
,
#SCROLL 1.12
,
#SCROLL 1.24
,
#SCROLL 1.39
,
#SCROLL 1.55
,
#SCROLL 1.72
,
#SCROLL 1.92
,
#SCROLL 2.14
,
#SCROLL 2.39
,
#SCROLL 2.66
,
#SCROLL 2.97
,
#SCROLL 3.31
,
#SCROLL 3.69
,
#MEASURE 3/16
#SCROLL 4.12
,
#MEASURE 4/4
#SCROLL 1
10111120,
10111122,
10111120,
1000101010111000,
10111120,
10111122,
10111120,
1011107000000080,
10211120,
10211122,
10211120,
1000201010111020,
10221120,
10211122,
10221120,
70000008,
#GOGOSTART
11212034,
000000500000000000000000000000000000000008000000,
11212034,
000000500000000000000000000000000000000000000008,
00334034,
000000500000000000000000000000000000000008000000,
11212034,
07000008,
#GOGOEND
10211120,
10221122,
1000201110102000,
1011101010102020,
10211120,
10221122,
1000201110102020,
500000000000000000000000000000000000000008000000,
22,
22,
2022,
2000000011101000,
#GOGOSTART
11111111,
1011101010101010,
600000000000000000000000000000000000000000000008,
#GOGOEND
0004,
#GOGOSTART
10221120,
1011102010102000,
1022202020102000,
1010202011102000,
1011101010111000,
1011101010111020,
10200222,
1011107000000080,
1010202010102220,
500000000000000000000000000000000000000008000000,
444444,
444444,
11211121,
11211121,
1110200000202020,
70000008,
#GOGOEND
10201120,
10211120,
10201120,
10211122,
10201122,
1022201010102020,
10201122,
70000008,
#GOGOSTART
1010202010102220,
500000000000000000000000000000000000000008000000,
444333,
444333,
11222211,
2220202010102220,
500000000000000000000000000000000000000008000000,
6008,
#GOGOEND
10211120,
10211122,
10211120,
1000201022202020,
#MEASURE 4/4
#GOGOSTART
10121212,
10121222,
10121212,
1110101022202020,
11212034,
000000300000400000000000500000000000000008000000,
11212034,
000000300000400000000000500000000000000008000000,
#GOGOEND
#MEASURE 1/32
3,
#BARLINEOFF
#MEASURE 1/4
,
#BARLINEON
#SCROLL 0.97
,
#SCROLL 0.95
,
#SCROLL 0.92
#MEASURE 7/32
,
#BARLINEOFF
#MEASURE 1/32
#SCROLL 1
,
#BARLINEON
#SCROLL 0.9
#MEASURE 1/4
,
#SCROLL 0.87
,
#SCROLL 0.84
,
#SCROLL 0.82
#MEASURE 7/32
,
#SCROLL 1
#BARLINEOFF
#MEASURE 1/32
#SCROLL 1
,
#BARLINEON
#MEASURE 1/4
#SCROLL 0.79
,
#SCROLL 0.77
,
#SCROLL 0.74
,
#SCROLL 0.71
#MEASURE 7/32
,
#BARLINEOFF
#MEASURE 1/32
,
#BARLINEON
#SCROLL 0.69
#MEASURE 1/4
,
#SCROLL 0.66
#MEASURE 7/32
,
#BARLINEOFF
#MEASURE 1/32
#SCROLL 1
508,
#BARLINEON
#SCROLL 0.64
,
#BARLINEOFF
#MEASURE 1/16
#SCROLL 1.14
580,
#SCROLL 1.3
580,
#SCROLL 1.48
580,
#MEASURE 1/32
#SCROLL 1.69
508,
#BARLINEON
#SCROLL 0.61
,
#MEASURE 1/16
#BARLINEOFF
#SCROLL 1.93
580,
#SCROLL 2.2
580,
#SCROLL 2.5
580,
#MEASURE 1/32
#SCROLL 2.85
508,
#BARLINEON
#SCROLL 0.58
,
#MEASURE 1/16
#BARLINEOFF
#SCROLL 3.25
580,
#SCROLL 3.71
580,
#SCROLL 4.23
580,
#SCROLL 4.82
#MEASURE 1/32
508,
#SCROLL 0.56
#BARLINEON
,
#BARLINEOFF
#MEASURE 1/16
#SCROLL 5.49
580,
#SCROLL 6.26
580,
#SCROLL 7.14
580,
#MEASURE 1/32
#SCROLL 8.14
508,
#BARLINEON
#SCROLL 0.53
,
#BARLINEOFF
#MEASURE 1/16
#SCROLL 9.27
580,
#SCROLL 10.57
580,
#SCROLL 12.05
580,
#MEASURE 1/32
#SCROLL 13.74
508,
#BARLINEON
#SCROLL 0.51
#MEASURE 1/32
,
#BARLINEOFF
#MEASURE 1/16
#SCROLL 15.66
580,
#SCROLL 17.86
580,
#SCROLL 19
608,
#MEASURE 1/64
#BPMCHANGE 105
#SCROLL 2
,
#BARLINEON
#SCROLL 0.96
#MEASURE 1/8
,
#SCROLL 0.91
,
#SCROLL 0.86
,
#MEASURE 7/64
#SCROLL 0.8
,
#BARLINEOFF
#MEASURE 1/64
#SCROLL 2
,
#BARLINEON
#MEASURE 1/8
#SCROLL 0.75
,
#SCROLL 0.7
,
#SCROLL 0.65
,
#SCROLL 0.6
#MEASURE 7/64
,
#BARLINEOFF
#MEASURE 4/4
#SCROLL 2
,
#END

COURSE:Normal
LEVEL:7
BALLOON:6,6,5,22,6,6,6,6
SCOREINIT:580
SCOREDIFF:130
#START
1,
1,
1,
1,
10200120,
10200120,
10200120,
10200120,
#MEASURE 2/4
3,
#BPMCHANGE 210
#MEASURE 1/16
,
#SCROLL 1.12
,
#SCROLL 1.24
,
#SCROLL 1.39
,
#SCROLL 1.55
,
#SCROLL 1.72
,
#SCROLL 1.92
,
#SCROLL 2.14
,
#SCROLL 2.39
,
#SCROLL 2.66
,
#SCROLL 2.97
,
#SCROLL 3.31
,
#SCROLL 3.69
,
#MEASURE 3/16
#SCROLL 4.12
,
#MEASURE 4/4
#SCROLL 1
10101110,
10101120,
10101110,
10102220,
10101110,
10101120,
10101110,
7008,
10201120,
10201122,
10201120,
10202222,
10201120,
10201122,
10201120,
7008,
#GOGOSTART
11111033,
000000500000000000000000000000000008000000000000,
11111044,
000000500000000000000000000000000000000000000008,
00333033,
000000500000000000000000000000000008000000000000,
11111044,
07000008,
#GOGOEND
10221020,
10221120,
10221020,
500000000000000000000000000000000008000000000000,
10221020,
10221120,
10221020,
500000000000000000000000000000000008000000000000,
2,
2,
22,
23,
#GOGOSTART
9,
,
0900,
#GOGOEND
8,
#GOGOSTART
10221120,
10221020,
11222220,
500000000000000000000000000000000008000000000000,
11201120,
11201122,
10200222,
700000000000000000000000000000000008000000000000,
10221120,
500000000000000000000000000000000008000000000000,
33,
33,
11112220,
11112220,
10200222,
7008,
#GOGOEND
10201120,
10201120,
10201120,
10201122,
10201122,
10221122,
500000000000000000000000000000000000000008000000,
7008,
#GOGOSTART
10221120,
500000000000000000000000000000000008000000000000,
33,
33,
11112220,
11221122,
500000000000000000000000000000000000000008000000,
6008,
#GOGOEND
10201120,
10201122,
10201120,
10202220,
#GOGOSTART
10121210,
10121222,
10121212,
7008,
11111033,
000000500000000000000000000000000008000000000000,
11111044,
000000500000000000000000000000000008000000000000,
#GOGOEND
#MEASURE 1/32
3,
#BARLINEOFF
#MEASURE 1/4
,
#BARLINEON
#SCROLL 0.97
,
#SCROLL 0.95
,
#SCROLL 0.92
#MEASURE 7/32
,
#BARLINEOFF
#MEASURE 1/32
#SCROLL 1
,
#BARLINEON
#SCROLL 0.9
#MEASURE 1/4
,
#SCROLL 0.87
,
#SCROLL 0.84
,
#SCROLL 0.82
#MEASURE 7/32
,
#SCROLL 1
#BARLINEOFF
#MEASURE 1/32
#SCROLL 1
,
#BARLINEON
#MEASURE 1/4
#SCROLL 0.79
,
#SCROLL 0.77
,
#SCROLL 0.74
,
#SCROLL 0.71
#MEASURE 7/32
,
#BARLINEOFF
#MEASURE 1/32
,
#BARLINEON
#SCROLL 0.69
#MEASURE 1/4
,
#SCROLL 0.66
#MEASURE 7/32
,
#BARLINEOFF
#MEASURE 1/32
#SCROLL 1
508,
#BARLINEON
#SCROLL 0.64
,
#BARLINEOFF
#MEASURE 1/16
#SCROLL 1.14
580,
#SCROLL 1.3
580,
#SCROLL 1.48
580,
#MEASURE 1/32
#SCROLL 1.69
508,
#BARLINEON
#SCROLL 0.61
,
#MEASURE 1/16
#BARLINEOFF
#SCROLL 1.93
580,
#SCROLL 2.2
580,
#SCROLL 2.5
580,
#MEASURE 1/32
#SCROLL 2.85
508,
#BARLINEON
#SCROLL 0.58
,
#MEASURE 1/16
#BARLINEOFF
#SCROLL 3.25
580,
#SCROLL 3.71
580,
#SCROLL 4.23
580,
#SCROLL 4.82
#MEASURE 1/32
508,
#SCROLL 0.56
#BARLINEON
,
#BARLINEOFF
#MEASURE 1/16
#SCROLL 5.49
580,
#SCROLL 6.26
580,
#SCROLL 7.14
580,
#MEASURE 1/32
#SCROLL 8.14
508,
#BARLINEON
#SCROLL 0.53
,
#BARLINEOFF
#MEASURE 1/16
#SCROLL 9.27
580,
#SCROLL 10.57
580,
#SCROLL 12.05
580,
#MEASURE 1/32
#SCROLL 13.74
508,
#BARLINEON
#SCROLL 0.51
#MEASURE 1/32
,
#BARLINEOFF
#MEASURE 1/16
#SCROLL 15.66
580,
#SCROLL 17.86
580,
#SCROLL 19
608,
#MEASURE 1/64
#BPMCHANGE 105
#SCROLL 2
,
#BARLINEON
#SCROLL 0.96
#MEASURE 1/8
,
#SCROLL 0.91
,
#SCROLL 0.86
,
#MEASURE 7/64
#SCROLL 0.8
,
#BARLINEOFF
#MEASURE 1/64
#SCROLL 2
,
#BARLINEON
#MEASURE 1/8
#SCROLL 0.75
,
#SCROLL 0.7
,
#SCROLL 0.65
,
#SCROLL 0.6
#MEASURE 7/64
,
#BARLINEOFF
#MEASURE 4/4
#SCROLL 2
,
#END

COURSE:Easy
LEVEL:5
BALLOON:5,5,18,10,10,5,11,10
SCOREINIT:480
SCOREDIFF:100
#START
1,
1,
1,
1,
1101,
1101,
1101,
1101,
#MEASURE 2/4
3,
#BPMCHANGE 210
#MEASURE 1/16
,
#SCROLL 1.12
,
#SCROLL 1.24
,
#SCROLL 1.39
,
#SCROLL 1.55
,
#SCROLL 1.72
,
#SCROLL 1.92
,
#SCROLL 2.14
,
#SCROLL 2.39
,
#SCROLL 2.66
,
#SCROLL 2.97
,
#SCROLL 3.31
,
#SCROLL 3.69
,
#MEASURE 3/16
#SCROLL 4.12
,
#MEASURE 4/4
#SCROLL 1
1011,
1011,
1011,
1022,
1011,
1011,
1011,
7008,
1011,
1022,
1011,
10001110,
1011,
1022,
1011,
7008,
#GOGOSTART
11101004,
,
11101004,
,
00303004,
,
11101004,
,
#GOGOEND
10111000,
20222000,
10111010,
500000000000000000000000000000000008000000000000,
10111000,
20222000,
10111010,
500000000000000000000000000000000008000000000000,
2,
2,
22,
23,
#GOGOSTART
9,
,
0900,
#GOGOEND
8,
#GOGOSTART
10111010,
20222000,
10111010,
500000000000000000000000000000000008000000000000,
11101010,
22202020,
1700,
0008,
10111020,
500000000000000000000000000000000008000000000000,
33,
33,
11101010,
22202020,
1700,
0008,
#GOGOEND
11,
1110,
11,
1110,
10101110,
20202220,
500000000000000000000000000000000008000000000000,
7008,
#GOGOSTART
10111020,
500000000000000000000000000000000008000000000000,
33,
33,
11101010,
22202020,
6,
0008,
#GOGOEND
1011,
1022,
1011,
10002220,
#GOGOSTART
10101110,
10102220,
10101110,
9,
0900,
0008,
6,
000000000000000000000000000000000008000000000000,
#GOGOEND
#MEASURE 1/32
3,
#BARLINEOFF
#MEASURE 1/4
,
#BARLINEON
#SCROLL 0.97
,
#SCROLL 0.95
,
#SCROLL 0.92
#MEASURE 7/32
,
#BARLINEOFF
#MEASURE 1/32
#SCROLL 1
,
#BARLINEON
#SCROLL 0.9
#MEASURE 1/4
,
#SCROLL 0.87
,
#SCROLL 0.84
,
#SCROLL 0.82
#MEASURE 7/32
,
#SCROLL 1
#BARLINEOFF
#MEASURE 1/32
#SCROLL 1
,
#BARLINEON
#MEASURE 1/4
#SCROLL 0.79
,
#SCROLL 0.77
,
#SCROLL 0.74
,
#SCROLL 0.71
#MEASURE 7/32
,
#BARLINEOFF
#MEASURE 1/32
,
#BARLINEON
#SCROLL 0.69
#MEASURE 1/4
,
#SCROLL 0.66
#MEASURE 7/32
,
#BARLINEOFF
#MEASURE 1/32
#SCROLL 1
7,
#BARLINEON
#SCROLL 0.64
,
#BARLINEOFF
#MEASURE 1/16
#SCROLL 1.14
,
#SCROLL 1.3
,
#SCROLL 1.48
,
#MEASURE 1/32
#SCROLL 1.69
,
#BARLINEON
#SCROLL 0.61
,
#MEASURE 1/16
#BARLINEOFF
#SCROLL 1.93
,
#SCROLL 2.2
,
#SCROLL 2.5
,
#MEASURE 1/32
#SCROLL 2.85
,
#BARLINEON
#SCROLL 0.58
,
#MEASURE 1/16
#BARLINEOFF
#SCROLL 3.25
,
#SCROLL 3.71
,
#SCROLL 4.23
,
#SCROLL 4.82
#MEASURE 1/32
,
#SCROLL 0.56
#BARLINEON
,
#BARLINEOFF
#MEASURE 1/16
#SCROLL 5.49
,
#SCROLL 6.26
,
#SCROLL 7.14
,
#MEASURE 1/32
#SCROLL 8.14
,
#BARLINEON
#SCROLL 0.53
,
#BARLINEOFF
#MEASURE 1/16
#SCROLL 9.27
,
#SCROLL 10.57
,
#SCROLL 12.05
,
#MEASURE 1/32
#SCROLL 13.74
,
#BARLINEON
#SCROLL 0.51
#MEASURE 1/32
,
#BARLINEOFF
#MEASURE 1/16
#SCROLL 15.66
,
#SCROLL 17.86
,
#SCROLL 19
008,
#MEASURE 1/64
#BPMCHANGE 105
#SCROLL 2
,
#BARLINEON
#SCROLL 0.96
#MEASURE 1/8
,
#SCROLL 0.91
,
#SCROLL 0.86
,
#MEASURE 7/64
#SCROLL 0.8
,
#BARLINEOFF
#MEASURE 1/64
#SCROLL 2
,
#BARLINEON
#MEASURE 1/8
#SCROLL 0.75
,
#SCROLL 0.7
,
#SCROLL 0.65
,
#SCROLL 0.6
#MEASURE 7/64
,
#BARLINEOFF
#MEASURE 4/4
#SCROLL 2
,
#END
