//TJADB Project
TITLE:Hinaru Medjed no Hinaru Yuu’utsu
TITLEJA:秘ナルメジェドノ悲ナル憂鬱
SUBTITLE:--Yuuya Kobayashi (IOSYS) feat. Momiji Yamamoto (monotone)
SUBTITLEJA:コバヤシユウヤ(IOSYS) feat.山本椛(monotone)
BPM:180
WAVE:Hinaru Medjed no Hinaru Yuuutsu.ogg
OFFSET:-2.798
DEMOSTART:17.746

COURSE:Oni
LEVEL:10
BALLOON:2,2,2,2,2,2,2,2,2,2,2,2,2,2,2,2,2
SCOREINIT:380
SCOREDIFF:80
#START
200000100222,
21,
21,
21,
200000100222,
21,
200000100222,
2000000010222222,
#BPMCHANGE 210
111222111222,
112121122122,
211122211122,
122111200000,//12
#GOGOSTART
1022102011201011,
2210201010201110,
2011201020112011,
2210201010201110,
1022102011201011,
2210201010201120,
1111102010201120,
1111102011221112,
1022102011201011,
2210201010201110,
2011201020112011,
2210201012112011,
1011201110112011,
1011201110112010,
1111102011112010,
1111221212112211,
1,
1,
1111211121112111,
200100100100201010101010//32
#GOGOEND
200000000000300000000000,
1120201120201120,
#MEASURE 3/4
201120203000,
#MEASURE 4/4
1020221020221020,
#MEASURE 3/4
221020203000,
#MEASURE 4/4
1120201120101120,
#MEASURE 3/4
201120103000,
#MEASURE 4/4
1020221010221020,
200200100000100000200200100020002000100020002000,
#MEASURE 3/4
500000080
#SCROLL 2
070//41
#GOGOSTART
000080000070000080000000,
#MEASURE 4/4
#SCROLL 1
500000080
#SCROLL 2
000300000000000400000000000
#SCROLL 1
200200200200,//42
#MEASURE 3/4
#GOGOEND
500000080
#SCROLL 2
070//43
#GOGOSTART
000080000070000080000000,
#MEASURE 5/4
#SCROLL 1
500000080
#SCROLL 2
000400000000000300000000000
#SCROLL 1
200200200200100100100100,//44
#MEASURE 3/4
#GOGOEND
500000080
#SCROLL 2
070//45
#GOGOSTART
000080000070000080000000,
#MEASURE 5/4
#SCROLL 1
500000080
#SCROLL 2
000300000000000400000000000
#SCROLL 1
100100100100200200200200,//46
#MEASURE 3/4
#GOGOEND
500000080
#SCROLL 2
070//47
#GOGOSTART
000080000070000080000000,
#MEASURE 5/4
#SCROLL 1
500000080000200100100100200200100100200100100100200200200100,//48
#MEASURE 4/4
#GOGOEND
12202220,
30222020,
3000202030222020,
3000300030222222,
1,
,
,
,
1111,
1111,
3002,
1222121112221112,//60
#GOGOSTART
1022102011201011,
2210201010201110,
2011201020112011,
2210201012112011,
1011201110112011,
1011201110112010,
1211202012112211,
1121221212112211,
1,
1,
1111211121112111,
200100100100201010101010//72-1
#GOGOEND
200000000000300000000000,//72-2
#SCROLL 1.05
#GOGOSTART
1000202210102022,
1010202212112000,
1000202210102022,
100000200000200000200200100000202020100000200000,
1000202210102022,
1010202212112000,
100000202020100000100000200200100000100000202020,
100000100000200200100000101010101010700000008000,
#SCROLL 1.1
1020112210201120,
1122122110121020,
1020112210201120,
200200100200200100100200100000102020100000200000,
1020112210201120,
1122122110121020,
100000202020100000100100200200100000100000202020,
100000100100200200100000100000202020100100200000,//88
#MEASURE 3/4
#SCROLL 1
#GOGOEND
500000080
#SCROLL 2
070//89
#GOGOSTART
000080000070000080000000,
#MEASURE 4/4
#SCROLL 1
500000080
#SCROLL 2
000300000000000400000000000
#SCROLL 1
200200200200,//90
#MEASURE 3/4
#GOGOEND
500000080
#SCROLL 2
070//91
#GOGOSTART
000080000070000080000000,
#MEASURE 5/4
#SCROLL 1
500000080
#SCROLL 2
000400000000000300000000000
#SCROLL 1
200200200200100100100100,//92
#MEASURE 3/4
#GOGOEND
500000080
#SCROLL 2
070//93
#GOGOSTART
000080000070000080000000,
#MEASURE 5/4
#SCROLL 1
500000080
#SCROLL 2
000300000000000400000000000
#SCROLL 1
100100100100200200200200,//94
#MEASURE 3/4
#GOGOEND
500000080
#SCROLL 2
070//95
#GOGOSTART
000080000070000080000000,
#MEASURE 5/4
#SCROLL 1
500000080000200100100100200200100100200100100100200200200100,//96
#MEASURE 4/4
#GOGOEND
1,
112020111010200000//98-1
#SCROLL 2
#GOGOSTART
300000,//98-2
#GOGOEND
#END

COURSE:Hard
LEVEL:7
BALLOON:39,5,4,4
SCOREINIT:440
SCOREDIFF:110
#START
2012,
21,
21,
21,
2012,
21,
2012,
21,
#BPMCHANGE 210
7,
,
,
08,//12
#GOGOSTART
1000200011102010,
0010200010002220,
11020102,
000000500000000000000008000000000000200000000000,
1000200011102010,
0010200010002220,
1000102000002220,
10120020,
1000200011102010,
0010200010002220,
11020101,
1020000011102010,
0010200011102010,
0010200011102050,
000000000000000000000000000000000000000000000008,
00002221,
00001121,
0440,
6,
000000000000000000000008//32
#GOGOEND
000000000000300000000000,
11221122,
#MEASURE 3/4
112230,
#MEASURE 4/4
11221122,
#MEASURE 3/4
112230,
#MEASURE 4/4
22112211,
#MEASURE 3/4
221130,
#MEASURE 4/4
11221122,
11223030,
#MEASURE 3/4
11//41
#GOGOSTART
4040,
#MEASURE 4/4
11404030,//42
#MEASURE 3/4
#GOGOEND
11//43
#GOGOSTART
4040,
#MEASURE 5/4
1140403030,//44
#MEASURE 3/4
#GOGOEND
11//45
#GOGOSTART
4040,
#MEASURE 5/4
1140403030,//46
#MEASURE 3/4
#GOGOEND
11//47
#GOGOSTART
4040,
#MEASURE 5/4
1140403030,//48
#MEASURE 4/4
#GOGOEND
3,
3,
33,
3330,
3,
,
,
,
1111,
1111,
3,
7008,//60
#GOGOSTART
1000200011102010,
0010200010002220,
11020101,
1020000011102010,
0010200011102010,
0010200011102050,
000000000000000000000000000000000000000000000008,
00002221,
00001121,
0440,
6,
000000000000000000000008//72-1
#GOGOEND
000000000000300000000000,//72-2
#GOGOSTART
10201120,
1010200010111000,
10201120,
11203030,
10201120,
1010200010111000,
10112210,
11227008,
12121210,
1020102010111000,
12121210,
12123030,
12121210,
1020102010111000,
11112211,
11227008,//88
#MEASURE 3/4
#GOGOEND
11//89
#GOGOSTART
4040,
#MEASURE 4/4
11404030,//90
#MEASURE 3/4
#GOGOEND
11//91
#GOGOSTART
4040,
#MEASURE 5/4
1140403030,//92
#MEASURE 3/4
#GOGOEND
11//93
#GOGOSTART
4040,
#MEASURE 5/4
#SCROLL 1
1140403030,//94
#MEASURE 3/4
#GOGOEND
11//95
#GOGOSTART
4040,
#MEASURE 5/4
1140403030,//96
#MEASURE 4/4
#GOGOEND
3,
600000000000000000000008000000000000//98-1
#GOGOSTART
300000000000,//98-2
#GOGOEND
,
#END

COURSE:Normal
LEVEL:5
BALLOON:21,15,5,2,2
#START
1,
1,
1,
11,
1,
1,
1,
3,
#BPMCHANGE 210
9,
,
0900,
8,//12
#GOGOSTART
10101011,
02000011,
02020202,
02000020,
10101011,
02000030,
30030030,
30030020,
10101011,
02000011,
02020202,
02001111,
00001111,
00001115,
000000000000000000000000000000000000000000000008,
00002222,
00002222,
0330,
6,
000000000000000000000008//32
#GOGOEND
000000000000000000000000,
10101001,
#MEASURE 3/4
022,
#MEASURE 4/4
10101001,
#MEASURE 3/4
022,
#MEASURE 4/4
10101001,
#MEASURE 3/4
022,
#MEASURE 4/4
7,
0008,
#MEASURE 3/4
0//41
#GOGOSTART
44,
#MEASURE 4/4
0333,//42
#MEASURE 3/4
#GOGOEND
0//43
#GOGOSTART
44,
#MEASURE 5/4
03333,//44
#MEASURE 3/4
#GOGOEND
0//45
#GOGOSTART
44,
#MEASURE 5/4
03333,//46
#MEASURE 3/4
#GOGOEND
0//47
#GOGOSTART
44,
#MEASURE 5/4
03333,//48
#MEASURE 4/4
#GOGOEND
3,
3,
33,
3330,
3,
,
,
,
1111,
1111,
3,
7008,//60
#GOGOSTART
10101011,
02000011,
02020202,
02001111,
00001111,
00001115,
000000000000000000000000000000000000000000000008,
00002222,
00002222,
0330,
6,
000000000000000000000008//72-1
#GOGOEND
000000000000000000000000,//72-2
#GOGOSTART
1212,
1230,
1212,
1230,
1212,
1230,
1212,
10207008,
10201110,
1230,
10201110,
1230,
10201110,
1230,
10201110,
10207008,//88
#MEASURE 3/4
#GOGOEND
0//89
#GOGOSTART
44,
#MEASURE 4/4
0333,//90
#MEASURE 3/4
#GOGOEND
0//91
#GOGOSTART
44,
#MEASURE 5/4
03333,//92
#MEASURE 3/4
#GOGOEND
0//93
#GOGOSTART
44,
#MEASURE 5/4
03333,//94
#MEASURE 3/4
#GOGOEND
0//95
#GOGOSTART
44,
#MEASURE 5/4
03333,//96
#MEASURE 4/4
#GOGOEND
3,
600000000000000000000008000000000000//98-1
#GOGOSTART
300000000000,//98-2
#GOGOEND
,
#END

COURSE:Easy
LEVEL:4
BALLOON:17,9,12,9,2,2
#START
1,
1,
1,
11,
1,
1,
1,
3,
#BPMCHANGE 210
9,
,
0900,
8,//12
#GOGOSTART
10101001,
01000050,
,
000000000000000000000008000000000000000000000000,
20202002,
02000030,
30030030,
30030000,
10101001,
01000050,
,
000008000000000000000000100000000000100000000000,
0011,
07,
,
8022,
0022,
0330,
6,
000000000000000000000008//32
#GOGOEND
000000000000000000000000,
10101003,
#MEASURE 3/4
,
#MEASURE 4/4
10101003,
#MEASURE 3/4
,
#MEASURE 4/4
10101003,
#MEASURE 3/4
,
#MEASURE 4/4
7,
0008,
#MEASURE 3/4
0//41
#GOGOSTART
44,
#MEASURE 4/4
0333,//42
#MEASURE 3/4
#GOGOEND
0//43
#GOGOSTART
44,
#MEASURE 5/4
03333,//44
#MEASURE 3/4
#GOGOEND
0//45
#GOGOSTART
44,
#MEASURE 5/4
03333,//46
#MEASURE 3/4
#GOGOEND
0//47
#GOGOSTART
44,
#MEASURE 5/4
03333,//48
#MEASURE 4/4
#GOGOEND
3,
3,
33,
3330,
3,
,
,
,
1,
1,
3,
3,//60
#GOGOSTART
10101001,
01000050,
,
000008000000000000000000100000000000100000000000,
0011,
07,
,
8022,
0022,
0330,
6,
000000000000000000000008//72-1
#GOGOEND
000000000000000000000000,//72-2
#GOGOSTART
1110,
1130,
1110,
1130,
2220,
1130,
2220,
10107008,
1122,
1130,
1122,
1130,
1122,
1130,
1122,
10107008,//88
#MEASURE 3/4
#GOGOEND
0//89
#GOGOSTART
44,
#MEASURE 4/4
0333,//90
#MEASURE 3/4
#GOGOEND
0//91
#GOGOSTART
44,
#MEASURE 5/4
03333,//92
#MEASURE 3/4
#GOGOEND
0//93
#GOGOSTART
44,
#MEASURE 5/4
#SCROLL 1
03333,//94
#MEASURE 3/4
#GOGOEND
0//95
#GOGOSTART
44,
#MEASURE 5/4
03333,//96
#MEASURE 4/4
#GOGOEND
6,
000000000000000008000000000000000000//98-1
#GOGOSTART
300000000000,//98-2
#GOGOEND
,
#END
