//TJADB Project
TITLE:Taiyoukei Disco
TITLEJA:太陽系デスコ
SUBTITLE:--NayutalieN feat. Hatsune Miku
SUBTITLEJA:ナユタン星人 feat.初音ミク
BPM:150
WAVE:Taiyoukei Disco.ogg
OFFSET:-1.803
DEMOSTART:52.600

COURSE:Oni
LEVEL:8
BALLOON:8,10,8,2,2,2,2,2,2,2,2
SCOREINIT:410
SCOREDIFF:90
#START
1,
1,
1,
1,
3333,
3333,
3333,
7084,
#GOGOSTART
600000000008000000300000600000000000000008000000,
1022102010221020,
600000000008000000300000600000000000000008000000,
1020201120202222,
#GOGOEND
1011201000102010,
0010201010222020,
1011201000102010,
01221440,
1011201000102010,
0010201010222020,
1011201000102010,
3000400110404000,
1011201000112010,
0011201010222020,
1011201000112010,
0011202010404000,
1011201000112010,
0011201010222020,
1011201000112010,
3000400110222000,
30000440,
30000440,
1011102011101020,
7008,
#GOGOSTART
3000102010221020,
1022102010222020,
1011202011102020,
1011112010404000,
3000102010221020,
1022102010222020,
1011202011102020,
#GOGOEND
7084,
#GOGOSTART
600000000008000000300000600000000000000008000000,
#GOGOEND
1022102010212010,
#GOGOSTART
600000000008000000300000600000000000000008000000,
#GOGOEND
1022102010212000,
#GOGOSTART
600000000008000000300000600000000000000008000000,
#GOGOEND
1022102010212010,
#GOGOSTART
600000000008000000300000600000000008000000100000,
#GOGOEND
1022102210221220,
#GOGOSTART
1110102011101020,
1111102011102000,
1110102011101020,
1111102010404000,
1110202011102020,
1111102011102000,
1110202011102020,
1122102030004000,
#GOGOEND
1001002010220011,
1122221110220011,
1002002210020010,
78787878,
1001002010220011,
1022221110220011,
1002002210020010,
78787878,
3,
1,
1,
1000000000022020,
1001101010011010,
1001101010022020,
1001101010011030,
03333000,
#GOGOSTART
3000102010221020,
1022102010222020,
1011202011102020,
1011112010404000,
3000102010221020,
1022102010222020,
1011202011102020,
#GOGOEND
1010222010002020,
#GOGOSTART
3022102210221020,
1022102030303040,
0011202011102020,
1011112010404000,
3022102210221020,
1022102210222020,
3011101210221010,
#GOGOEND
0004,
#GOGOSTART
600000000008000000300000600000000000000008000000,
#GOGOEND
1022102010212010,
#GOGOSTART
600000000008000000300000600000000008000000100000,
#GOGOEND
1022102210221220,
600000000000000000000000000000000008000000000000,
#END

COURSE:Hard
LEVEL:5
BALLOON:6,20,8
SCOREINIT:440
SCOREDIFF:113
#START
1,
1,
1,
1,
3333,
3333,
3333,
7084,
#GOGOSTART
30033000,
10111120,
30033000,
10211120,//12
#GOGOEND
1011101000101010,
01111120,
1011101000101010,
01112000,
1011101000101010,
01111120,
1011101000101010,
500000000000000000000000000000000008000000000000,
1011102000101020,
01121120,
1011102000101020,
01121000,
1011102000101020,
01121120,
1011102000101020,
500000000000000000000000000000000008000000000000,
30000440,
30000440,
7,
0008,//32
#GOGOSTART
3122,
1011100020002000,
1011101010001000,
1011100020000000,
3122,
1011100020002000,
1011101010001000,//39
#GOGOEND
7084,//40
#GOGOSTART
30033000,//41
#GOGOEND
12101220,//42
#GOGOSTART
30033000,//43
#GOGOEND
12101220,//44
#GOGOSTART
30033000,//45
#GOGOEND
12101220,//46
#GOGOSTART
30033001,//47
#GOGOEND
1122,//48
#GOGOSTART
30121012,
1000202011102000,
10121012,
10221440,
10121012,
1000202011102000,
10121012,
10223040,//56
#GOGOEND
1001001020000010,
10112001,
1001001020020020,
4444,
1001001020000010,
10112001,
1001001020020020,
4444,
3,
1,
1,
1,
1001100010011000,
1001100010011000,
1001100010011030,
03333000,//72
#GOGOSTART
3122,
1011100020222000,
1011101010002000,
1011100020000000,
3122,
1011100020222000,
1011101010002000,//79
#GOGOEND
11201022,//80
#GOGOSTART
3122,
1011100030303030,
0011101010002000,
1011100020000000,
1011101110002000,
1011101110002000,
3333,//87
#GOGOEND
0004,//88
#GOGOSTART
30033000,//89
#GOGOEND
12101220,//90
#GOGOSTART
30033001,//91
#GOGOEND
1122,
600000000000000000000000000000000008000000000000,
,
#END

COURSE:Normal
LEVEL:4
BALLOON:6,14,4
#START
1,
1,
1,
1,
3333,
3333,
3333,
7084,//8
#GOGOSTART
30033000,
10102220,
30033000,
10102220,//12
#GOGOEND
30100110,
01101020,
10100110,
01102000,
30100110,
01101020,
10100110,
500000000000000000000000000000000008000000000000,
30100110,
01101020,
10100110,
01102000,
30100110,
01101020,
10100110,
500000000000000000000000000000000008000000000000,
30000440,
30000440,
7,
0008,//32
#GOGOSTART
1122,
11102020,
1122,
11102000,
1122,
11102020,
1122,//39
#GOGOEND
7084,//40
#GOGOSTART
30033000,//41
#GOGOEND
10102220,//42
#GOGOSTART
30033000,//43
#GOGOEND
20202220,//44
#GOGOSTART
30033000,//45
#GOGOEND
10102220,//46
#GOGOSTART
30033001,//47
#GOGOEND
1122,//48
#GOGOSTART
30111011,
10112020,
10111011,
10222020,
10111011,
10112020,
10111011,
10222040,//56
#GOGOEND
10011000,
10111000,
10011000,
4444,
10011000,
10111000,
10011000,
4444,
3,
1,
1,
1,
1111,
1112,
10101013,
03333000,//72
#GOGOSTART
1122,
11102220,
1122,
11102000,
1122,
11102220,
1122,//79
#GOGOEND
11201000,//80
#GOGOSTART
1122,
11103333,
01102020,
11102000,
10111020,
10111020,
3333,//87
#GOGOEND
0004,//88
#GOGOSTART
30033000,//89
#GOGOEND
10102220,//90
#GOGOSTART
30033001,//91
#GOGOEND
1122,
600000000000000000000000000000000008000000000000,
,
#END

COURSE:Easy
LEVEL:3
BALLOON:3,12,3,5
#START
1,
1,
1,
1,
1111,
1111,
1111,
7083,//8
#GOGOSTART
33,
1110,
33,
1120,//12
#GOGOEND
1101,
0110,
1101,
0220,
1101,
0110,
1101,
500000000000000000000000000008000000000000000000,
1101,
0110,
1101,
0220,
1101,
0110,
1101,
500000000000000000000000000008000000000000000000,
3,
3,
7,
0008,//32
#GOGOSTART
1110,
1110,
11,
1120,
1110,
1110,
11,//39
#GOGOEND
7083,//40
#GOGOSTART
33,//41
#GOGOEND
1110,//42
#GOGOSTART
33,//43
#GOGOEND
1120,//44
#GOGOSTART
33,//45
#GOGOEND
1110,//46
#GOGOSTART
33,//47
#GOGOEND
7008,//48
#GOGOSTART
1110,
12,
1110,
22,
1110,
12,
1110,
22,//56
#GOGOEND
11,
1110,
11,
3333,
11,
1110,
11,
3333,
3,
1,
1,
1,
11,
11,
10001006,
000000000000000000000008000000000000000000000000,//72
#GOGOSTART
1110,
1110,
11,
1120,
1110,
1110,
11,//79
#GOGOEND
500000000000000000000008000000000000000000000000,//80
#GOGOSTART
1111,
1133,
01,
1120,
1111,
1110,
3333,//87
#GOGOEND
0003,//88
#GOGOSTART
33,//89
#GOGOEND
1110,//90
#GOGOSTART
33,//91
#GOGOEND
1122,
600000000000000000000000000000000008000000000000,
,
#END
