//TJADB Project
TITLE:Black Rose Apostle
TITLEJA:Black Rose Apostle
SUBTITLE:--Tatsh a.k.a. Zeami
BPM:204
WAVE:Black Rose Apostle.ogg
OFFSET:-2.603
DEMOSTART:38.185

COURSE:Edit
LEVEL:10
BALLOON:9
SCOREINIT:400
SCOREDIFF:98
#START
#SCROLL 0.5
#MEASURE 8/4
1020102010201120,
1020102010201120,
1020102010201120,
1020102010201120,
1212121212121212,
10101010101010102222112211111111,
#SCROLL 1
#BPMCHANGE 102
#MEASURE 5/8
1,
#BPMCHANGE 204
#MEASURE 6/8
302212,
121222,
121212,
212221,
321212,
212121,
212122,
212121,
321212,
122212,
121222,
121212,
321222,
121212,
#MEASURE 4/4
32222212,
12121222,
32121212,
12121212,
1020102011221222,
2111211211111111,
#MEASURE 2/4
21111111,
#MEASURE 4/4
1022102010222020,
1022102010222020,
1022102010221020,
1022102010222020,
2011201020112010,
2011201020122010,
2011201020112010,
2022222020112222,
1020102010221020,
1020102010222020,
1020102010221020,
1020102010222020,
1122102010221020,
1122102010202022,
1022202010221020,
1020102010221201,
2222111122221111,
7008,
#SCROLL 0.5
#MEASURE 8/4
10102020101022201010202010102220,
10102020101022201010202010102220,
22201020202010102222101022201010,
11111111222222222222111122221111,
#SCROLL 1
#MEASURE 4/4
2011112011112011,
1120112020112011,
2011112011112011,
1120112011202022,
2011112011112011,
1120111120112011,
2011112011112011,
2211221122221111,
2211221111111111,
#SCROLL 0.5
,//60
#SCROLL 1
#GOGOSTART
4011201111211120,
2011201120111120,
2011201120111120,
2011201121112011,
2011201122112011,
2011221122112011,
2011201122112011,
2120112011201122,
2010112010112010,
1120111020112011,
2010112010112011,
1022101122112011,
2011201120112121,
1011201121112121,
1011201120112121,
1111201120112121,
1011201120112121,
1011201021102020,
1111201120112011,
2011111122112211,
2011112011112011,
1111201111111111,
1,
1111111122222222,
13000000,
#GOGOEND
#END

COURSE:Oni
LEVEL:10
BALLOON:9,18
SCOREINIT:420
SCOREDIFF:100
#START
#SCROLL 0.5
#MEASURE 8/4
11111010201010101111101020101010,
11111010201010201111101020101010,
11111010201010101111101020101010,
11111010201010201111101020101010,
11111010201020101111101020102010,
11111020111110201111111111111110,
#MEASURE 5/8
#SCROLL 1
#BPMCHANGE 102
,
#BPMCHANGE 204
#MEASURE 3/4
101120111010,
201011102110,
101220111010,
201011102210,
101120111010,
201011102110,
101220111010,
201011102210,
201110201110,
201110201110,
201210201210,
201121102120,
201110201110,
201210201210,
#MEASURE 4/4
1011201110112011,
1011211021112010,
1011201110112011,
1011211021112010,
1110212011102120,
1111222212121212,
#MEASURE 2/4
10201111,
#MEASURE 4/4
1020112010221020,
1020112010221020,
1020112010201120,
1022102010201120,
1020112010221020,
1020112010221020,
1020112010201120,
1022102010201120,
1020112010221020,
1020112010221020,
1020112010201120,
1022102010201120,
1020112010221020,
1020112010221020,
1021112010221020,
1021112010221020,
1121102011112222,
7008,
#SCROLL 0.5
#MEASURE 8/4
10001111200010101010200010001000,
10001111200010101010200020001000,
10001111200010101010200010001000,
10001111200010101010200011112000,
#SCROLL 1
#MEASURE 4/4
3011102011101011,
1020111030403040,
3011102011101011,
1020111040404000,
3021102021101021,
1020211030403040,
3022201022201020,
1020112010201120,
33333333,
#SCROLL 0.5
,//60
#SCROLL 1
#GOGOSTART
1011201110112011,
1011211021102010,
1011201110112011,
1011211021112010,
1011201110112011,
1011211021102010,
1011201110112011,
1011211021112010,
2011102011102011,
1020111021112010,
2012102012102012,
1020121021212011,
1110201010112011,
1110201010112011,
1120201010112011,
1120201010112011,
1011201110112011,
1011201110112030,
03400000,
1010222010102220,
1022201022201000,
1022201000002020,
7,
00008000,
#SCROLL 5.73
33000000,
#GOGOEND
#END

COURSE:Hard
LEVEL:8
BALLOON:3,8,11,20
SCOREINIT:690
SCOREDIFF:150
#START
#SCROLL 0.5
#MEASURE 8/4
3,
4,
3,
4,
3,
300000000000000000000000600000000000000000000008,
#MEASURE 5/8
#SCROLL 1
#BPMCHANGE 102
,
#MEASURE 3/4
#BPMCHANGE 204
102110,
201120,
102110,
201120,
102110,
201120,
102110,
201120,
222111,
222111,
222111,
212120,
111222,
111222,
#MEASURE 4/4
10201120,
11202110,
10201120,
11202110,
11221122,
12121212,
#MEASURE 2/4
78,
#MEASURE 4/4
10201121,
01201120,
10201121,
01201120,
10201121,
01201120,
10210120,
10201121,
10201121,
01201120,
10201121,
01201120,
10201120,
10201220,
10201120,
10201220,
12121212,
7008,
#SCROLL 0.5
#MEASURE 8/4
1011201010201010,
1011201010102020,
2011201010201010,
1011201020202000,
#SCROLL 1
#MEASURE 4/4
30030030,
03003030,
30030030,
03003330,
30030030,
03003030,
30030030,
4444,
7,
#SCROLL 0.5
8,//60
#SCROLL 1
#GOGOSTART
11201021,
01201120,
10210120,
3330,
11201021,
01201120,
10210120,
3330,
22211122,
21112120,
22211122,
21112121,
01102021,
01102021,
01102021,
01102021,
01102011,
01102011,
0300,
33,
7,
,
8,
,
33000000,
,
,
,//88
#GOGOEND
,
,
,
#END

COURSE:Normal
LEVEL:6
BALLOON:16,24,16
SCOREINIT:850
SCOREDIFF:210
#START
#SCROLL 0.5
#MEASURE 8/4
3,
4,
3,
4,
3,
300000000000000000000000600000000000000000000008,
#MEASURE 5/8
#SCROLL 1
#BPMCHANGE 102
,
#MEASURE 3/4
#BPMCHANGE 204
101110,
101,
101,
101,
101110,
101,
101,
101,
22,
22,
22,
222,
22,
22,
#MEASURE 4/4
22,
2220,
2220,
2220,
7,
,
#MEASURE 2/4
8,
#MEASURE 4/4
11,
10101110,
11,
10101110,
11,
10102220,
11,
2220,
11,
10101110,
11,
10101110,
11,
10102220,
11,
2220,
1111,
1,
#SCROLL 0.5
#MEASURE 8/4
10201011,
10202011,
10201011,
10202220,
#SCROLL 1
#MEASURE 4/4
30030030,
03003030,
30030030,
03003030,
30030030,
03003030,
9,
,
0900,
#SCROLL 0.5
8,//60
#SCROLL 1
#GOGOSTART
1110,
10111000,
1110,
10111000,
1110,
10111000,
1110,
10111000,
20020020,
0220,
20020020,
00202001,
00101001,
00101002,
00202002,
00202001,
00101001,
00101003,
0300,
33,
9,
09,
8,
,
33000000,
,
,
,//88
#GOGOEND
,
,
,
#END

COURSE:Easy
LEVEL:5
BALLOON:14,20,14
SCOREINIT:690
SCOREDIFF:180
#START
#SCROLL 0.5
#MEASURE 8/4
3,
4,
3,
4,
3,
300000000000000000000000600000000000000000000008,
#MEASURE 5/8
#SCROLL 1
#BPMCHANGE 102
,
#MEASURE 3/4
#BPMCHANGE 204
111,
1,
1,
111,
1,
1,
111,
1,
2,
2,
2,
222,
2,
2,
#MEASURE 4/4
22,
2220,
22,
2220,
7,
,
#MEASURE 2/4
8,
#MEASURE 4/4
1110,
11,
1110,
11,
1110,
11,
2,
2220,
1110,
11,
1110,
11,
1110,
11,
2,
2220,
1111,
1,
#SCROLL 0.5
#MEASURE 8/4
10001011,
10002011,
10001011,
1022,
#SCROLL 1
#MEASURE 4/4
3003,
0033,
3003,
03,
3003,
0033,
9,
,
0900,
#SCROLL 0.5
8,//60
#SCROLL 1
#GOGOSTART
1110,
1110,
11,
500000000000000000000008000000000000000000000000,
1110,
1110,
11,
500000000000000000000008000000000000000000000000,
22,
2220,
22,
2220,
0110,
0110,
0220,
0220,
1110,
10101005,
000000000000000000000008000000000000000000000000,
33,
9,
09,
8,
,
3,
,
,
,//88
#GOGOEND
,
,
,
#END
