//TJADB Project
TITLE:JOIN US
TITLEJA:JOIN US
SUBTITLE:--UUUM Collaboration Unit
SUBTITLEJA:UUUMコラボユニット
BPM:131.22
WAVE:JOIN US.ogg
OFFSET:-1.999
DEMOSTART:61.950

COURSE:Oni
LEVEL:7
BALLOON:14
SCOREINIT:640
SCOREDIFF:173
#START
#SCROLL 1.01
3002011002011022,
#BPMCHANGE 132
#SCROLL 1
1002001110202000,
3002011002011022,
1002001110202000,
3002011002011022,
1002001110202000,
3002011002011020,
#BPMCHANGE 133.45
#SCROLL 0.99
500000000000000000000000000000000008000000000000,
#BPMCHANGE 129.50
#SCROLL 1.02
3000201100102000,
#BPMCHANGE 133.12
#SCROLL 0.99
1000201100102010,
#BPMCHANGE 132
#SCROLL 1
3000201100102000,
1000201100102000,
3000201110102000,
1010201110102000,
#BPMCHANGE 132.9
#SCROLL 0.99
3000201110102000,
#BPMCHANGE 132.3
#SCROLL 1
1022102010201110,
#BPMCHANGE 130.82
#SCROLL 1.01
3000201100102010,
#BPMCHANGE 132
#SCROLL 1
1000201100102020,
3000201100102010,
1000201100102020,
3000201110102000,
1010201110102000,
3000201110102000,
#BPMCHANGE 133.07
#SCROLL 0.99
7008,
#BPMCHANGE 130.95
#SCROLL 1.01
12121220,
#BPMCHANGE 132
#SCROLL 1
1020102010222000,
12121220,
1120202210102000,
12121220,
#BPMCHANGE 133.02
#SCROLL 0.99
1020102010222000,
#BPMCHANGE 131
#SCROLL 1.01
33403340,
#BPMCHANGE 132.93
#SCROLL 0.99
3344,
#BPMCHANGE 132.62
#SCROLL 1
1011011011111020,
#GOGOSTART
#BPMCHANGE 130.48
#SCROLL 1.01
3000300010222010,
#BPMCHANGE 132
#SCROLL 1
0022201010221020,
3000300010222010,
0022201010221020,
1000102010222000,
#BPMCHANGE 132.92
#SCROLL 0.99
1000102010222000,
#BPMCHANGE 131.1
#SCROLL 1.01
3434,
#BPMCHANGE 132.19
#SCROLL 1
600000000000000000000000000000000008000000000000,
#BPMCHANGE 131.81
3000300010222010,
#BPMCHANGE 132
0022201010221020,
3000300010222010,
0022201010221020,
1000102010222000,
#BPMCHANGE 132.41
1000102010222000,
#BPMCHANGE 132.25
3434,
#BPMCHANGE 131.35
#SCROLL 1.01
600000000000000000000000000000000008000000000000,
#BPMCHANGE 132
#SCROLL 1
4000400030222020,
3022202030221000,
4000400030222020,
3022202030221000,
4000400030222020,
#BPMCHANGE 132.32
3022202030221000,
#BPMCHANGE 132.67
1111200011112000,
#BPMCHANGE 132.51
1111222211112222,
#GOGOEND
#BPMCHANGE 129.45
#SCROLL 1.02
1002011002011022,
#BPMCHANGE 136.67
#SCROLL 0.97
1002001110404000,
#END

COURSE:Hard
LEVEL:3
BALLOON:10
SCOREINIT:710
SCOREDIFF:218
#START
#SCROLL 1.01
3,
#BPMCHANGE 132
#SCROLL 1
10001110,
3,
10001110,
3,
10001110,
3,
#BPMCHANGE 133.45
#SCROLL 0.99
500000000000000000000000000000000008000000000000,
#BPMCHANGE 129.5
#SCROLL 1.02
30200120,
#BPMCHANGE 133.12
#SCROLL 0.99
10200120,
#BPMCHANGE 132
#SCROLL 1
30200120,
10200120,
30201120,
10201120,
#BPMCHANGE 132.9
#SCROLL 0.99
3210,
#BPMCHANGE 132.3
#SCROLL 1
12101210,
#BPMCHANGE 130.82
#SCROLL 1.01
30200120,
#BPMCHANGE 132
#SCROLL 1
10200120,
30200120,
10200120,
30201120,
10201120,
30201120,
#BPMCHANGE 133.07
#SCROLL 0.99
7008,
#BPMCHANGE 130.95
#SCROLL 1.01
10101220,
#BPMCHANGE 132
#SCROLL 1
10101220,
10101220,
1212,
10101220,
#BPMCHANGE 133.02
#SCROLL 0.99
10101220,
#BPMCHANGE 131
#SCROLL 1.01
3434,
#BPMCHANGE 132.93
#SCROLL 0.99
3344,
#BPMCHANGE 132.62
#SCROLL 1
,
#GOGOSTART
#BPMCHANGE 130.48
#SCROLL 1.01
30300111,
#BPMCHANGE 132
#SCROLL 1
02201122,
30300111,
02201122,
1122,
#BPMCHANGE 132.92
#SCROLL 0.99
1122,
#BPMCHANGE 131.1
#SCROLL 1.01
3434,
#BPMCHANGE 132.19
#SCROLL 1
600000000000000000000000000000000008000000000000,
#BPMCHANGE 131.81
30300111,
#BPMCHANGE 132
02201122,
30300111,
02201122,
1122,
#BPMCHANGE 132.41
1122,
#BPMCHANGE 132.25
3434,
#BPMCHANGE 131.35
#SCROLL 1.01
600000000000000000000000000000000008000000000000,
#BPMCHANGE 132
#SCROLL 1
4430,
33,
4430,
33,
4430,
#BPMCHANGE 132.32
33,
#BPMCHANGE 132.67
3434,
#BPMCHANGE 132.51
3434,//57
#GOGOEND
#BPMCHANGE 129.45
#SCROLL 1.02
3,
#BPMCHANGE 136.67
#SCROLL 0.97
10003330,
#END

COURSE:Normal
LEVEL:3
SCOREINIT:830
SCOREDIFF:358
#START
#SCROLL 1.01
3,
#BPMCHANGE 132
#SCROLL 1
,
3,
,
3,
,
3,
500000000000000000000000000000000008000000000000,
3,
1100,
3,
1100,
31,
1110,
31,
1110,
3,
1100,
3,
1100,
3011,
1,
3011,
1,
1120,
1120,
1122,
,
1120,
1120,
33,
3344,
,
#GOGOSTART
30300111,
0220,
30300111,
0220,
1122,
1122,
33,
600000000000000000000000000000000008000000000000,
30300111,
0220,
30300111,
0220,
1122,
1122,
33,
600000000000000000000000000000000008000000000000,
4430,
33,
4430,
33,
4430,
33,
33,
33,
#GOGOEND
3,
#BPMCHANGE 133
10003330,
#END

COURSE:Easy
LEVEL:2
SCOREINIT:690
SCOREDIFF:488
#START
#SCROLL 1.01
3,
#BPMCHANGE 132
#SCROLL 1
,
3,
,
3,
,
3,
500000000000000000000000000008000000000000000000,
3,
1,
3,
1,
31,
1,
31,
1,
3,
1,
3,
1,
31,
1,
31,
1,
1110,
1110,
1111,
,
1110,
1110,
33,
3333,
,
#GOGOSTART
3300,
02,
3300,
02,
11,
1111,
33,
600000000000000000000000000008000000000000000000,
3300,
02,
3300,
02,
11,
1111,
33,
600000000000000000000000000008000000000000000000,
1130,
33,
1130,
33,
1130,
33,
33,
33,
#GOGOEND
3,
#BPMCHANGE 133
0003,
#END
