//TJADB Project
TITLE:Toymatic☆Parade‼
TITLEJA:トイマチック☆パレード!!
SUBTITLE:--DJ Genki
SUBTITLEJA:DJ Genki
BPM:220
WAVE:Toymatic Parade!!.ogg
OFFSET:-1.296
DEMOSTART:1.296

COURSE:Oni
LEVEL:10
BALLOON:4,8,8
SCOREINIT:320
SCOREDIFF:90
#START
#GOGOSTART
3000300022202010,
0020002000221020,
3000300011111040,
0040004000221020,
3000300022202010,
0020002000221020,
3000300011111040,
0040004000221020,
5,
000000000000000000000000000000000000000000000008,
,
2210221022102222,
1020102010201111,
100200111200100200100200,
300000000000500008000000600008000000700000000000,//15
#GOGOEND
8003,
#MEASURE 8/4
#SCROLL 0.5
01210121012100
#SCROLL 1
40,
#MEASURE 4/4
0000102000102220,
0020001020102222,
2000102000102011,
2010001120102222,
1010222210102212,
1010222210002020,
1111100000201111,
2010222210103000,
#MEASURE 8/4
#SCROLL 0.5
1111202010112120,
1000101020102010100022201000
#SCROLL 1
4000,
#SCROLL 0.5
30002010001020000011201000102000,
101120100010200011112000
#SCROLL 1
30004000,//29
#MEASURE 4/4
#GOGOSTART
300221101202,
111212100400,
100112202102,
111222100400,
100221101202,
111212100400,//35
#BARLINEOFF
#SCROLL 0.67
#GOGOEND
0020202022222020,//36
#BARLINEON
#SCROLL 1
#GOGOSTART
1111111110004000,//37
#GOGOEND
,
,
,
,
#BPMCHANGE 230
3222,
#BPMCHANGE 240
3222,
#BPMCHANGE 250
32223222,
#BPMCHANGE 260
3334,//45
#BPMCHANGE 270
#GOGOSTART
10101101,//46
#GOGOEND
0022202010202020,//47
#GOGOSTART
10101101,//48
#GOGOEND
0022201020201020,//49
#GOGOSTART
10101101,//50
#GOGOEND
0022202010201020,//51
#GOGOSTART
10101101,
0010101000221020,
10101022,
0010001000221020,
10101102,
0020002000221020,
10102201,
0022202010202020,//59
#GOGOEND
1113,
,
1110202020001110,
2020200011102020,
1110102020001110,
1020200011102020,
1110101020001110,
1010200011102020,
1110101010001010,
0004,
1110202011102020,
1110202010202020,
1110202011102020,
1110202010202020,
12121212,
12121212,
500000000000000000000000000000000000000000000008,
0004,//77
#GOGOSTART
12121221,
12212112,
12121221,
1020201020111020,
12121221,
12212112,
11221221,
1020201010221020,
11212212,
21211212,
11221221,
1020201010221020,
12121221,
1022202010102020,//91
#GOGOEND
1113,
7008,//93
#BPMCHANGE 280
#GOGOSTART
12121221,
1022201020201020,
11221212,
2010102010112020,
12121221,
1022202010102020,
11221221,
1020201010222020,
11212212,
21211212,
11221221,
1020201010221020,
12121221,
1022202010102020,
1010202010222020,//108
#GOGOEND
7008,//109
#GOGOSTART
3000300022202010,
0020002000221020,
3000300011111040,
0040004000221020,
3000300022202010,
0020002000221020,
3000300011111040,
0040004000221020,
1110202011102020,
1110222011102220,//119
#GOGOEND
22221111,
222011102000//121-1
#GOGOSTART
3000,//121-2
#GOGOEND
#END

COURSE:Hard
LEVEL:8
BALLOON:7,5,5,12
SCOREINIT:420
SCOREDIFF:90
#START
#GOGOSTART
30302222,
02020222,
30301114,
04040222,
30302222,
02020222,
30301114,
04040222,
5,
000000000000000000000000000000000000000000000008,
,
2222,
12121210,
12101210,
3344,//15
#GOGOEND
0003,
#MEASURE 8/4
#SCROLL 0.5
1202020
#SCROLL 1
4,
#MEASURE 4/4
00120121,
02012010,
20120102,
12012010,
22112211,
20112022,
10100210,
7008,
#MEASURE 8/4
#SCROLL 0.5
1022201010111020,
1022201010111040,
1020012000200120,
102001201020
#SCROLL 1
3040,//29
#MEASURE 4/4
#GOGOSTART
300201102200,
100201100400,
100201102200,
1214,
100201102200,
100201100400,//35
#BARLINEOFF
#SCROLL 0.67
#GOGOEND
02222020,//36
#BARLINEON
#SCROLL 1
#GOGOSTART
500000000000000000000008000000000000400000000000,//37
#GOGOEND
,
,
,
,
#BPMCHANGE 230
3,
#BPMCHANGE 240
3,
#BPMCHANGE 250
33,
#BPMCHANGE 260
3334,//45
#BPMCHANGE 270
#GOGOSTART
10101101,//46
#GOGOEND
02221222,//47
#GOGOSTART
10101101,//48
#GOGOEND
02212222,//49
#GOGOSTART
10101101,//50
#GOGOEND
02221222,//51
#GOGOSTART
10101101,
01110212,
10101022,
01010212,
10102202,
02020212,
10102201,
02212222,//59
#GOGOEND
0003,
,
11112011,
11201020,
11112011,
11201020,
11112011,
11201020,
11112011,
0004,
11121112,
11121122,
11121112,
11121122,
12121212,
12121212,
500000000000000000000000000000000000000000000008,
0004,//77
#GOGOSTART
10101102,
02020202,
10101102,
02020202,
10101102,
02020202,
10201102,
02020212,
10202021,
02020212,
10202102,
02020212,
10202102,
02212222,//91
#GOGOEND
0003,
7008,//93
#BPMCHANGE 280
#GOGOSTART
10101102,
02212222,
10101102,
02012222,
10101102,
02212222,
10101102,
02020212,
10202021,
02020212,
10202102,
02020212,
10202102,
02212222,
10202102,//108
#GOGOEND
7008,//109
#GOGOSTART
30302222,
02020222,
30301114,
04040222,
30302222,
02020222,
30301114,
04040222,
11121112,
12221222,//119
#GOGOEND
7,
008//121-1
#GOGOSTART
3,//121-2
#GOGOEND
,
,
#END

COURSE:Normal
LEVEL:7
BALLOON:14,9,4,5,7
#START
#GOGOSTART
3300,
,
30300004,
04040000,
3300,
,
30300004,
04040000,
9,
09,
8,
,
10102220,
10102220,
3344,//15
#GOGOEND
0003,
#MEASURE 8/4
#SCROLL 0.5
0202020
#SCROLL 1
4,
#MEASURE 4/4
0202,
0212,
0202,
0212,
1122,
1122,
0700,
0008,
#MEASURE 8/4
#SCROLL 0.5
11221110,
11221110,
12021202,
120212
#SCROLL 1
33,//29
#MEASURE 4/4
#GOGOSTART
3212,
1013,
1212,
1024,
1212,
1013,//35
#BARLINEOFF
#SCROLL 0.67
#GOGOEND
,//36
#BARLINEON
#SCROLL 1
#GOGOSTART
500000000000000000000008000000000000400000000000,//37
#GOGOEND
,
,
,
,
#BPMCHANGE 230
3,
#BPMCHANGE 240
3,
#BPMCHANGE 250
33,
#BPMCHANGE 260
3334,//45
#BPMCHANGE 270
#GOGOSTART
10101101,//46
#GOGOEND
,//47
#GOGOSTART
10101101,//48
#GOGOEND
,//49
#GOGOSTART
10101101,//50
#GOGOEND
,//51
#GOGOSTART
10101101,
01010000,
20202022,
02020000,
20202202,
02020000,
20202202,
,//59
#GOGOEND
,
,
1121,
1212,
1121,
1212,
1121,
1212,
1121,
0004,
11101110,
11101110,
11101110,
11101110,
1111,
1111,
500000000000000000000000000000000000000000000008,
0004,//77
#GOGOSTART
10101102,
02020000,
10101102,
02020000,
10101102,
02020000,
10101102,
02020000,
20202022,
02020000,
20202202,
02020000,
10101102,
,//91
#GOGOEND
0003,
7008,//93
#BPMCHANGE 280
#GOGOSTART
10101102,
02020000,
10101102,
02020000,
10101102,
02020000,
10101102,
02020000,
20202022,
02020000,
20202202,
02020000,
10101102,
,
1114,//108
#GOGOEND
7008,//109
#GOGOSTART
3300,
,
30300004,
04040000,
3300,
,
30300004,
04040000,
11101110,
22202220,//119
#GOGOEND
7,
008//121-1
#GOGOSTART
3,//121-2
#GOGOEND
,
,
#END

COURSE:Easy
LEVEL:5
BALLOON:10,6,3,3,5
#START
#GOGOSTART
3300,
,
30300003,
03030000,
3300,
,
30300003,
03030000,
9,
09,
8,
,
1110,
1110,
3333,//15
#GOGOEND
,
#MEASURE 8/4
#SCROLL 0.5
0202020
#SCROLL 1
0,
#MEASURE 4/4
0202,
0202,
0202,
0202,
11,
1110,
0700,
0008,
#MEASURE 8/4
#SCROLL 0.5
10101110,
10101110,
12020202,
020210
#SCROLL 1
33,//29
#MEASURE 4/4
#GOGOSTART
32,
1011,
12,
1011,
12,
1011,//35
#BARLINEOFF
#SCROLL 0.67
#GOGOEND
,//36
#BARLINEON
#SCROLL 1
#GOGOSTART
500000000000000000000008000000000000400000000000,//37
#GOGOEND
,
,
,
,
#BPMCHANGE 230
3,
#BPMCHANGE 240
3,
#BPMCHANGE 250
33,
#BPMCHANGE 260
3330,//45
#BPMCHANGE 270
#GOGOSTART
10101001,//46
#GOGOEND
,//47
#GOGOSTART
10101001,//48
#GOGOEND
,//49
#GOGOSTART
10101001,//50
#GOGOEND
,//51
#GOGOSTART
10101001,
01010000,
20202002,
,
20202002,
,
10101002,
,//59
#GOGOEND
,
,
1101,
11,
1101,
11,
1101,
11,
1101,
,
11,
12,
11,
12,
1110,
1110,
500000000000000000000000000000000000000000000008,
,//77
#GOGOSTART
10101001,
,
10101001,
,
10101001,
,
10101001,
01010000,
20202002,
,
20202002,
,
10101002,
,//91
#GOGOEND
,
7008,//93
#BPMCHANGE 280
#GOGOSTART
10101002,
,
10101002,
,
10101002,
,
10101001,
01010000,
20202002,
,
20202002,
,
10101002,
,
1110,//108
#GOGOEND
7008,//109
#GOGOSTART
3300,
,
30300003,
03030000,
3300,
,
30300003,
03030000,
11,
33,//119
#GOGOEND
7,
008//121-1
#GOGOSTART
3,//121-2
#GOGOEND
,
,
#END
