//TJADB Project
TITLE:Where is the Target?
TITLEJA:Where is the Target?
SUBTITLE:--Ayako Saso (Sampling Masters)/Rolling Thunder 2
SUBTITLEJA:「ローリングサンダー2」より
BPM:229.89
WAVE:Where is the Target.ogg
OFFSET:-3.006
DEMOSTART:10.304 //Shinuchi:
6580/4350/2280/1680

COURSE:Oni
LEVEL:9
BALLOON:18,10,18,10,10,10
SCOREINIT:620,1810
SCOREDIFF:150
#START
#MEASURE 7/4
#SCROLL 0.5
30020110220211,
10020110220122,
10020110220211,
1000002000101022201010102020,
10020110220211,
10020110220122,
10020110220211,
1000002000101022201010102020, //8
00102120202121,
11020112121211,
11020212012012,
11120112122122,
10020110221212,
20102010121212,
11210110202022,
1010002000101022201010102020, //16
10020110220211,
100000000000000000200000000000100000500000000000000000000008000000000000200000200000,
1121121,
70000000000800,
#MEASURE 8/4
3004011004011120,
3004011001201120,
3004011004011120,
10000030000070000000000008000000, //24
#BPMCHANGE 223.37
100200200202200202200202,
#BPMCHANGE 222.93
200200200202200202201001,
000200200202200202200205,
000000000000000000000008000000000000200200200200100000000000200000001000000000001000000000002000,
200200200202200202202102,
000201200201200102000201,
000000000000200000000000000000100100200000000000000000000000200000002000200000000000200000002000,
200201200202200201201201, //32
100201002101100201002102,
002001202201202201002001,
000200200202200202201001,
002201102001221221202001,
500000000000000000000008000000000000200000005000000000000000000000000000000000008000000000002000,
001002101102101102102111,
13030404,
03030404, //40
101102101102101102111102,
101102101102101207000000,
#MEASURE 7/4
#BPMCHANGE 230.48
0000000000080000
#BPMCHANGE 228.83
300000000000, //43
#BPMCHANGE 229.89
#SCROLL 0.75
#GOGOSTART
11020110221212,
11020122112212,
11020112011221,
21120121212122,
1000221000221000112211221000,
1222122212127000000000080000,
1221001221007000000000080000,
3000001120201010100220100220,
1111001111007000000000008000,
2220202000111010102010201111, //53
#GOGOEND
1
#SCROLL 0.5
0000000000022,
10000000000021,
10000000000022,
1000002000101022201010202020, //57
1,
#MEASURE 4/4
#BARLINEOFF
0,
#END

COURSE:Hard
LEVEL:8
BALLOON:14,7,18,6,10,26
SCOREINIT:690,2590
SCOREDIFF:178 //7* in WiiU3/Vita, Score 660/165
#START
#MEASURE 7/4
#SCROLL 0.5
30020110220011,
10020110220011,
10020110220011,
10020112211110,
10020110220011,
10020110220011,
10020110220011,
10020112211110,
0122122,
10020212121011,
10020120020020,
11120110202011,
10020110220011,
1121122,
11210010202020,
11020112211111,
10020110220011,
10020110220011,
1121121,
70000000000800,
#MEASURE 8/4
3004003004003030,
3004003004003030,
3004003004003030,
30000030000070000000000008000000,
#BPMCHANGE 223.37
200200200200200200200202,
#BPMCHANGE 222.93
200200200200200200201001,
000200200200200200200205,
000000000000000000000000000000000000000000000000000000000000000000000000000000008000000000000000,
200100200100200101000202,
000101000202000101000202,
000200200200200200200202,
22222210,
100201000100100201000202,
002000200000300000000000,
200200200200200200201001,
02222222,
500000000000000000000000000000000000000000000000
000000000000000000000000008000000000000000001000,
000200200200202202000100,
03030303,
03030303,
100000001000100000000000100000001000100000000000100000000100100000001000000000000000000000000000,
101100101100101107000000,
#MEASURE 7/4
#BPMCHANGE 230.48
0000
#BPMCHANGE 228.83
800,//43
#BPMCHANGE 229.89
#SCROLL 0.625
#GOGOSTART
11020110220110,
11020110112020,
11020110220110,
11110120202020,
10110110112210,
1010202010107000000000080000,
10030070000000,
80012211010110,
20020070000000,
0000000000000000000000080000,//53
#GOGOEND
3
#SCROLL 0.5
0000000000011,
1000001,
10000000000011,
10020112211110,
3,
#MEASURE 4/4
#BARLINEOFF
0,
#END

COURSE:Normal
LEVEL:6
BALLOON:12,20
SCOREINIT:930,4510
SCOREDIFF:293
#START
#MEASURE 7/4
#SCROLL 0.5
0,
0,
10020000000000,
10020000000000,
10020010000010,
10020010000010,
10020010000010,
10020010101010,
0111111,
10020010000010,
10020010000010,
10020010000000,
10020010000010,
10020010000010,
10020010000010,
1100000,
10020010000010,
10020010000010,
1111110,
500000000000000000000000000000000000000000000000000008000000000000000000000000000000,
#MEASURE 8/4
1002001002001000,
1002001000000000,
1002001002001000,
1001003000000000,
#BPMCHANGE 223.37
22222222,
#BPMCHANGE 222.93
22222220,
200200200200200200200205,
000000000000000000000000000000000000000000000000000000000000000008000000000000000000000000000000,
22222222,
22222220,
22222220,
1130,
100001000000100001000002,
020000400000,
22222222,
22222220,
500000000000000000000000000000000000000000000000000000000000000008000000000000000000000000000000,
22221000,
01010101,
01010102,
02020202,
000200000200000207000000,
#MEASURE 7/4
#BPMCHANGE 230.48
0000
#BPMCHANGE 228.83
800,//43
#BPMCHANGE 229.89
#GOGOSTART
10020010101010,
10020010101010,
10020010101010,
10020030000000,
10020010101010,
100000000000100000000000100000000000500000000000000000000008000000000000000000000000,
100000000000000000100000000000000000500000000000000000000000000000000000000000000008,
0000222,
10010070000000,
0,//53
#GOGOEND
8,
1000001,
1,
10020010101010,
1,
#MEASURE 4/4
#BARLINEOFF
0,
#END

COURSE:Easy
LEVEL:4
BALLOON:7,12,12,16
SCOREINIT:790,7810
SCOREDIFF:313
#START
#MEASURE 7/4
#SCROLL 0.5
0,
0,
1,
2,
10010010000000,
10010010000000,
10010010000000,
3,
10010010000000,
10010010000000,
10010010000000,
4,
20020020000000,
20020020000000,
20020020000000,
1100000,
10010010000000,
10010010000000,
10010010000000,
500000000000000000000000000000000000000000000008000000000000000000000000000000000000,
#MEASURE 8/4
30030000,
30030000,
30030000,
3003003000000000,
#BPMCHANGE 223.37
02020202,
#BPMCHANGE 222.93
02020202,
000200000200000200000205,
000000000000000000000000000000000000000000000000000000000000000000000008000000000000000000000000,
02020202,
02020202,
02020201,
78,
100001000000100001000001,
0,
02020202,
02020202,
500000000000000000000000000000000000000000000000000000000000000000000008000000000000000000000000,
500000000000000000000000000000000000000000000000000000000008000000000000000000000000000000000000,
30011000,
30011000,
40022000,
40027000,
#MEASURE 7/4
#BPMCHANGE 230.48
0000
#BPMCHANGE 228.83
800,//43
#BPMCHANGE 229.89
#GOGOSTART
10010010000000,
10010010000000,
10010010000000,
30030030000000,
20020020000000,
20020020000000,
20020070000000,
08,
10010070000000,
0,//53
#GOGOEND
8,
1,
2,
10010010000000,
3,
#MEASURE 4/4
#BARLINEOFF
0,
#END
