//TJADB Project
TITLE:Furi-furi♪ Nori-nori♪
TITLEJA:フリフリ♪ノリノリ♪
SUBTITLE:--Toaki Usami feat. MANA
SUBTITLEJA:「太鼓の達人 Nintendo Switch ば〜じょん!」テーマソング
BPM:190
WAVE:Furi-furi Nori-nori.ogg
OFFSET:-1.434
DEMOSTART:54.670

COURSE:Edit
LEVEL:9
BALLOON:8,8,6
SCOREINIT:430
SCOREDIFF:110
#START
#BARLINEOFF
#MEASURE 2/4
222222,
#BARLINEON
#MEASURE 4/4
302122102122,
101221202100,
102122102122,
122122111200,
302122102122,
101221202100,
102122102122,
122122102101,
#GOGOSTART
200101202101,
201201201201,
202101202100,
102102102112,
#GOGOEND
200102102100,
100201201200,
111200111200,
111222111201,
#GOGOSTART
200101202101,
201201201211,
202101202101,
102102102100,
#GOGOEND
400101202100,
202101222222,
#GOGOSTART
102102111201,
002104001202,
100200102104,
0000000700000000,
#GOGOEND
801100201201,
101201101200,
1222122012221220,
1222122070000000,
801200101201,
102201102200,
111200121200,
101010201010700000000800,
122102122122,
102102122122,
122102122122,
102102122122,
101222101222,
101201000111,
444433,
301111400000,
#GOGOSTART
200101202101,
201201201201,
202101202100,
102102102111,
#GOGOEND
200102102102,
100201201200,
111200111200,
111222111200,
#GOGOSTART
202101202101,
201201201211,
202101202101,
102102102111,
#GOGOEND
202101202101,
202101202111,
201201211202,
001212111111,
#GOGOSTART
0343,
201201201211,
202101202100,
102102112111,
#GOGOEND
200102102102,
101201201200,
111200111200,
122122112200,
#GOGOSTART
202101202101,
201201201201,
202101202101,
102102112211,
202101202101,
202101202111,
202101202101,
202101212111,
202101202101,
222102102112,
102102100102,
104000001001,
400000400006,
000000000000000000000000000000000008000000000000,
#GOGOEND
102102102001,
002202001400,
102100202102,
1012212050000000,
000000000000000000000000000008000000000200100000,
1,
#END

COURSE:Oni
LEVEL:7
BALLOON:15,15,10
SCOREINIT:720
SCOREDIFF:160
#START
#BARLINEOFF
#MEASURE 2/4
,
#BARLINEON
#MEASURE 4/4
5,
000000000000000000000008000000000000000000000000,
,
,
100101100000,
100101100000,
101100101100,
111111100000,
#GOGOSTART
100101100200,
101102002200,
100101101100,
202002002000,
#GOGOEND
000100202200,
100200202200,
302200302200,
500000000000000000000000000000000008000000000000,
#GOGOSTART
100101100200,
101102002200,
100101101100,
202202002200,
#GOGOEND
000100202200,
100200202200,
#GOGOSTART
101101100001,
001102001101,
17,
0008,
#GOGOEND
102200101001,
102201102200,
101200101200,
101201200000,
102200101001,
102201102200,
1414,
1440,
200101100100,
200111100100,
200101100100,
200111100100,
330330,
303003000000,
7,
08,
#GOGOSTART
100101100200,
101102002200,
100101102200,
202002002000,
#GOGOEND
000100202200,
100200202200,
302200302200,
500000000000000000000000000000000008000000000000,
#GOGOSTART
100101102200,
101102002200,
100101102200,
202202002200,
#GOGOEND
000100202200,
100200202200,
101101100001,
002102002200,
#GOGOSTART
100101102200,
101102002200,
100101102200,
202202002200,
#GOGOEND
000100202200,
100200202200,
302200302200,
3330,
#GOGOSTART
101101101101,
101102002202,
101101101101,
202202002200,
000100202200,
100200202200,
000100201200,
100201201200,
000100201202,
101202101200,
3333,
300000001001,
100200102007,
0008,
#GOGOEND
101101102001,
002201000400,
102100102102,
06,
000000000000000000000000000000000000000000000008,
#END

COURSE:Hard
LEVEL:6
BALLOON:12,14,10
SCOREINIT:650
SCOREDIFF:160
#START
#BARLINEOFF
#MEASURE 2/4
,
#BARLINEON
#MEASURE 4/4
5,
000000000000000000000008000000000000000000000000,
,
,
1110,
1110,
1111,
101101100000,
#GOGOSTART
1111,
101101002200,
100101101100,
202002002000,
#GOGOEND
0122,
1222,
3232,
500000000000000000000000000000000008000000000000,
#GOGOSTART
1111,
101101002200,
100101101100,
202202002200,
#GOGOEND
0122,
1222,//23
#GOGOSTART
101101100001,
001102001101,
17,
0008,//27
#GOGOEND
1210,
100100102200,
1212,
1220,
1210,
100200102200,
1414,
1440,
2110,
200101100000,
2110,
200101100000,
330330,
303003000000,
7,
08,//43
#GOGOSTART
1111,
101101002200,
100101101100,
202002002000,//47
#GOGOEND
0122,
1222,
3232,
500000000000000000000000000000000008000000000000,//51
#GOGOSTART
1111,
101101002200,
100101101100,
202202002200,//55
#GOGOEND
0122,
1222,
100100100001,
001102002200,//59
#GOGOSTART
1112,
101101002200,
100101101100,
202202002200,//63
#GOGOEND
0122,
1222,
3232,
3330,//67
#GOGOSTART
1112,
101101002200,
100101101100,
202202002200,
0122,
1222,
0122,
1222,
000100202200,
100200202200,
3333,
300000001001,
100200100007,
0008,//81
#GOGOEND
101101102001,
001101000400,
101100101102,
06,
000000000000000000000000000000000000000000000008,
,
#END

COURSE:Normal
LEVEL:4
BALLOON:8,8,8
#START
#BARLINEOFF
#MEASURE 2/4
,
#BARLINEON
#MEASURE 4/4
#SCROLL 0.666
5,
000000000000000000000008000000000000000000000000,
,
,
1,
1,
11,
1130,//9
#GOGOSTART
1110,
22,
1110,
22,//13
#GOGOEND
11,
12,
33,
500000000000000000000000000000000008000000000000,//17
#GOGOSTART
1110,
22,
1110,
22,//21
#GOGOEND
11,
12,//23
#GOGOSTART
300300300005,
000000000000000800000000000000000000000000000000,
37,
0008,//27
#GOGOEND
11,
1011,
22,
22,
11,
1011,
0404,
0440,
2110,
2110,
2110,
2110,
33,
500000000000000000080000000000000000000000000000,
7,
08,//43
#GOGOSTART
1110,
22,
1110,
22,//47
#GOGOEND
11,
12,
33,
500000000000000000000000000000000008000000000000,//51
#GOGOSTART
1110,
22,
1110,
22,//55
#GOGOEND
11,
12,
300300300005,
000000000000000000080000000000000000000000000000,//59
#GOGOSTART
1111,
22,
1111,
22,//63
#GOGOEND
11,
12,
33,
500000000000000000000000000000000008000000000000,//67
#GOGOSTART
1111,
22,
1111,
22,
1011,
12,
1111,
12,
1111,
1111,
3335,
000000000000000000080000000000000000000000000000,
300000300007,
,//81
#GOGOEND
8,
0004,
,
06,
000000000000000000000000000000000000000000000008,
,
#END

COURSE:Easy
LEVEL:3
BALLOON:6,6,5
#START
#BARLINEOFF
#MEASURE 2/4
,
#BARLINEON
#MEASURE 4/4
#SCROLL 0.666
5,
000000000000000000000008000000000000000000000000,
,
,
1,
1,
11,
3,//9
#GOGOSTART
1110,
,
1110,
,//13
#GOGOEND
1,
1,
33,
500000000000000000000000000008000000000000000000,//17
#GOGOSTART
1110,
,
1110,
,//21
#GOGOEND
1,
1,//23
#GOGOSTART
300300300005,
000000000000000000080000000000000000000000000000,
37,
0008,//27
#GOGOEND
11,
1,
22,
2,
11,
1,
0202,
0220,
0110,
0110,
0110,
0110,
33,
500000000000000000080000000000000000000000000000,
7,
08,//43
#GOGOSTART
1110,
,
1110,
,//47
#GOGOEND
1,
1,
33,
500000000000000000000000000008000000000000000000,//51
#GOGOSTART
1110,
,
1110,
,//55
#GOGOEND
1,
1,
300300300005,
000000000000000000080000000000000000000000000000,//59
#GOGOSTART
1110,
11,
1110,
11,//63
#GOGOEND
1,
1,
33,
500000000000000000000000000008000000000000000000,//67
#GOGOSTART
1110,
11,
1110,
11,
1,
1,
11,
1,
1110,
1110,
3335,
000000000000000000080000000000000000000000000000,
300000300007,
,//81
#GOGOEND
8,
0004,
,
06,
000000000000000000000000000000000000000000000008,
,
#END
