//TJADB Project
TITLE:Behemoth
TITLEJA:Behemoth
SUBTITLE:--DJ Myosuke
SUBTITLEJA:DJ Myosuke
BPM:190
WAVE:Behemoth.ogg
OFFSET:-2.572
DEMOSTART:73.193

COURSE:Oni
LEVEL:10
BALLOON:13
SCOREINIT:340
SCOREDIFF:83
#START
#MEASURE 8/4
#SCROLL 0.5
10000010000011111010100000001111,
10100010000011111010100000101111,
10000010000011111010100000001111,
1010001000001000300000000000
#SCROLL 1
1111,
#MEASURE 4/4
#GOGOSTART
1020120212012020,
100000200000100200000200100100100100500008000000,
4000302101021020,
1012010111112010,
2010210121012020,
1040030211112000,
111010200020111010202020,
1111111122204000,
#GOGOEND
1100201100201111,
2011102011112211,
1100201100201111,
2012012011112222,
1100201100201111,
2011102011112211,
1100201100201111,
#SCROLL 1.5
600000000000000000000000000008000000400000000000,
#SCROLL 1
#GOGOSTART
3001210212012020,
100000200200100000200000100100100100202020200000,
3001210212112020,
100000200200100000200000200200100100202020200000,
3021211212012020,
100000200100000200100200100100100100202020200000,
1121121122122122,
1020002000221020,
#GOGOEND
#BPMCHANGE 160
#SCROLL 1.19
3,
#SCROLL 1
200000000000200000000000101010101010200200200200,
#GOGOSTART
10001000111010102000000011101010,
000100000100200000100100200000101010100100100100,
10001000111010102000000011101010,
000100000100200000100100202020100100200200200200,
10001000111010102000000011101010,
000100000100200000100100200000101010100100100100,
10001000111010102000000011101010,
202020202020200020002000101010101010200200200200,
#GOGOEND
#BPMCHANGE 190
1000001000001111,
1,
1010001000001111,
10110000,
3000100010001011,
1010100010001111,
1000100010001011,
1001101010101111,
111010202020111010202020,
111010111010111010202220,
100010002000100010002000100100200100100200100200,
#SCROLL 1.5
600000000000000000000000000000000000000000000008,
#SCROLL 1
#BARLINEOFF
0000000011112000,
#BARLINEON
#GOGOSTART
3022112212021120,
1022122212010120,
1022112212021120,
1022121111010120,
3022111112010120,
3022111121010120,
3022121211010111,
#GOGOEND
1022222222020020,
#GOGOSTART
3021021221011010,
1021011122222040,
3021021221011010,
1011011122222040,
#GOGOEND
1112022211120222,
1012022210120222,
1022022012222220,
3000111112222111,
#GOGOSTART
2112112112112121,
2112112112112212,
2112112112112121,
2112112122122122,
2112112112112121,
2112112112112212,
2112112212212121,
#GOGOEND
200000200200000200200000200200000200101010100100,
#GOGOSTART
2112112112112111,
200100100200100100200100100200101010200000100100,
2112112112112111,
200100100200100100200100200200101010200000200200,
2112112112112211,
2112112112112212,
2112212112212121,
#GOGOEND
70000008,
#SCROLL 2
#GOGOSTART
111110111110111110111110,
101000202000101000202000100200100200102010201020,
#GOGOEND
1,
#END

COURSE:Hard
LEVEL:8
BALLOON:5,4,4,3,3,9,9
SCOREINIT:530,1910
SCOREDIFF:130
#START
#MEASURE 8/4
#SCROLL 0.5
1001000011100000,
1101000011100000,
1001000011100000,
1101000030000000,
#MEASURE 4/4
#SCROLL 1
#GOGOSTART
10101012,
1000100011103000,
4000100101011010,
1010010110104000,
10101011,
1010010110104000,
111100222200,
500000000000000000000000000008000000400000000000,
#GOGOEND
10210200,
2011102010102000,
10210200,
2002002011102000,
10210200,
2011102010102000,
10210200,
#SCROLL 1.5
600000000000000000000000000008000000400000000000,
#SCROLL 1
#GOGOSTART
3111,
1020100011104000,
10101110,
1020100022204000,
1001001001001010,
1001001011104000,
1010101011101110,
10000012,
#GOGOEND
#BPMCHANGE 160
#SCROLL 1.19
3,
#SCROLL 1
20207008,
#GOGOSTART
1010111020001011,
0101101020000000,
1010111020001011,
0101101070000080,
1010111020001011,
0101101020000000,
1010111020001011,
500000000000000008000000700000000000000000800000,
#GOGOEND
#BPMCHANGE 190
1000001000001110,
1,
1010001000001110,
10110000,
3000100010001011,
1010100010001110,
1000100010001011,
1001101010101110,
111100111100,
110110110200,
100010000000200020000000100100100000200200200000,
#SCROLL 1.5
600000000000000000000000000000000000000000000008,
#SCROLL 1
#BARLINEOFF
0000000011104000,
#BARLINEON
#GOGOSTART
30121010,
1000102010010020,
10121010,
1000102010010020,
3000111010010020,
3000111010010020,
3000101010010010,
#GOGOEND
3,
#GOGOSTART
3001001001011010,
1001011070000080,
3001001001011010,
1011011070000080,
#GOGOEND
1002000010020000,
2002000020020000,
70000008,
3,
#GOGOSTART
30121022,
1000102010002011,
10121022,
1000102010010011,
10121022,
1000102010002011,
10121012,
#GOGOEND
,
#GOGOSTART
3000102010001110,
10121140,
3000102010001110,
1001001001004000,
3001001001001010,
3001001001001110,
3001001001001020,
#GOGOEND
70000008,
#SCROLL 2
#GOGOSTART
3333,
3030303011101110,
#GOGOEND
3,
#END

COURSE:Normal
LEVEL:7
BALLOON:9,7,3,3,5,3,5
SCOREINIT:680,3090
SCOREDIFF:180
#START
#MEASURE 8/4
#SCROLL 0.5
10001100,
10001100,
10001100,
13,
#MEASURE 4/4
#SCROLL 1
#GOGOSTART
1111,
10101110,
4700,
0084,
1111,
11003040,
101100200200,
500000000000000000000000000008000000400000000000,
#GOGOEND
10010000,
11101000,
10010000,
2012,
10010000,
11101000,
10010000,
#SCROLL 1.5
600000000000000000000000000000000008000000000000,
#SCROLL 1
#GOGOSTART
3111,
10101140,
10101110,
10101140,
7,
00801140,
11111111,
1001,
#GOGOEND
#BPMCHANGE 160
#SCROLL 1.19
3,
#SCROLL 1
20207008,
#GOGOSTART
11102011,
0120,
11102011,
00107008,
11102011,
0120,
11102011,
500000000000000000000000000000000008000000000000,
#GOGOEND
#BPMCHANGE 190
1001,
1,
1001,
1,
3111,
11101011,
10101011,
10111000,
301100301100,
3334,
30401122,
#SCROLL 1.5
600000000000000000000000000000000000000000000008,
#SCROLL 1
#BARLINEOFF
00001140,
#BARLINEON
#GOGOSTART
30121010,
10121000,
30121010,
10121000,
30111000,
30111000,
30111000,
#GOGOEND
3,
#GOGOSTART
5,
000000000000000000000008000000000000000000000000,
5,
000000000000000000000008000000000000000000000000,
#GOGOEND
11,
22,
7008,
3,
#GOGOSTART
30101012,
10121011,
10101012,
500000000000000000000000000000000008000000000000,
10101012,
10121011,
10101022,
#GOGOEND
,
#GOGOSTART
30101011,
10121040,
30101011,
7084,
500000000000000000000000000008000000100000000000,
500000000000000000000000000008000000100000100000,
600000000000000000000000000008000000200000200000,
#GOGOEND
7008,
#SCROLL 2
#GOGOSTART
3333,
300000300000300000300000600000000000000008000000,
#GOGOEND
3,
,
#END

COURSE:Easy
LEVEL:5
BALLOON:7,6,3,3,3
SCOREINIT:480,4050
SCOREDIFF:128
#START
#MEASURE 8/4
#SCROLL 0.5
11,
11,
11,
13,
#MEASURE 4/4
#SCROLL 1
#GOGOSTART
1111,
1130,
2700,
0083,
1111,
1034,
1122,
500000000000000000000000000008000000000000000000,
#GOGOEND
1,
1110,
1,
22,
1,
1110,
1,
#SCROLL 1.5
600000000000000000000000000008000000000000000000,
#SCROLL 1
#GOGOSTART
3111,
1014,
1111,
1034,
7,
0814,
11101110,
1001,
#GOGOEND
#BPMCHANGE 160
#SCROLL 1.19
3,
#SCROLL 1
2230,
#GOGOSTART
1121,
0120,
1121,
0130,
1121,
0120,
1121,
500000000000000000000000000000000008000000000000,
#GOGOEND
#BPMCHANGE 190
1,
,
1,
,
3111,
11101000,
10101011,
10111000,
33,
3330,
3344,
#SCROLL 1.5
600000000000000000000000000000000000000000000008,
#SCROLL 1
#BARLINEOFF
,
#BARLINEON
#GOGOSTART
3111,
1130,
3111,
1130,
3120,
3120,
3110,
#GOGOEND
3,
#GOGOSTART
5,
000000000000000000000008000000000000000000000000,
5,
000000000000000000000008000000000000000000000000,
#GOGOEND
11,
11,
7008,
3,
#GOGOSTART
1111,
10101011,
1111,
500000000000000000000000000008000000000000000000,
1111,
10101011,
10101011,
#GOGOEND
,
#GOGOSTART
10101011,
1114,
10101011,
7084,
500000000000000000000000000000000008000000000000,
500000000000000000000000000000000008000000000000,
600000000000000000000000000000000008000000000000,
#GOGOEND
70000800,
#SCROLL 2
#GOGOSTART
3333,
600000000000000000000000000000000008000000000000,
#GOGOEND
,
,
#END
