//TJADB Project
TITLE:Shining☆Abracadabra ~Alajin & Magical Lamp Princess~
TITLEJA:シャイニング☆アブラカタブラ
SUBTITLE:--Seifu Meigetsu [Drop × Yura Hatsuki]
SUBTITLEJA:〜阿羅仁&マジカルランプ姫〜
BPM:149
WAVE:Shining Abracadabra Alajin and Magical Lamp Princess.ogg
OFFSET:-1.807
DEMOSTART:72.662

COURSE:Oni
LEVEL:9
SCOREINIT:500
SCOREDIFF:110
#START
100000200000000000200000100000200000000000200000,
100000200000000000200000100000200000100000200200,
100000200000000000200000100000200000000000200000,
100000200000100000200000100000200200100000000000,
#GOGOSTART
100100100100200000100000100100200100200000100000,
100100100100200000100000200100200200100000000000,
100100100100200000100000100100200100200000100000,
100100200100200200100200100200200200100000000000,
#GOGOEND
100000100100200000100000200000100100200000100000,
200000100200100000200000100200100000200000200200,
100000100100200000200200100000100100200000200200,
10002010200010001110202010202020,
100000100100200000100000200000100100200000100000,
200000100200100000200000100200100000200000200200,
100000100100200000200200100000100100200000200200,
100200200200100000200200100200200100100200100100,
100000000100200000100200100100000100200000100100,
100000000100200000100200100100202020100000200000,
100000000100200000100200100100000100200000101010,
100100100100200000100200100000200200100200200200,
100000100100200000100000200000100100200000100000,
200000100200100000200000100200100000200000200200,
100000100100200000200200100000100100200000200200,
10002010200010001110202010202020,
100000100100200000100000200000100100200000100000,
200000100200100000200000100200100000200000200200,
100000100100200000200200100000100100200000200200,
100200200200100000200200100200200100100200200200,
100000000100200000100000100200200000100000200000,
100000000100200000100000100100000200100000200000,
100000000100200000100000100200200000100000200000,
100100200000100200200000100100200200100200200100,
100000000100200000100000100200200000100100200000,
100000000100200000100000100100000200100100200000,
100000000100200000100000100200200000100100200000,
100100200200100200200100100100200000200000200200,
100000000100200000100000100200200000100100200000,
100000000100200000100000100100000200100100200000,
100000000000400000200200100000000000400000400000,
100100200200100200200100100200100200100100200200,
100100100000200000100100100000200000100100100000,
22202020202020202020202020202000,
300000000300000000300000400000000400000000400000,
200000200000100000200000100000200000500008000000,
#GOGOSTART
100000100100200000100000200000100100200000100000,
200000100200100000200000100200100000200000200200,
100200100000400000100200100100200000400000200200,
100200200000200000200200100100101010200200200200,
100000100100200000100000200000100100200000100000,
200000100200100000200000100200100000200000200200,
100200100000400000100200100100200000400000200200,
10202020200020201011202010202000,
300000000000300000000000300000000000300000000000,
22202020202020202020202020202020,
100100200000100200200000100100200200100200200100,
#GOGOEND
200000000000000000000000000000000000000000000000,
#GOGOSTART
100100100100200000100000100100200100200000100000,
100100100100200000100000200100200200100000000000,
100100200100200200100200100200200100200200100200,
11102010202010201000202010000000,
#GOGOEND
#END

COURSE:Hard
LEVEL:6
SCOREINIT:660
SCOREDIFF:170
#START
100000000000000000000000100000000000000000000000,
100000000000000000000000100000000000100000000000,
100000000000000000000000100000000000000000000000,
100000000000100000000000100000000000400000000000,
#GOGOSTART
100100100000200000000000100000100000200000000000,
100100100000200000000000100000200000200000000000,
100100100000200000000000100000100000200000000000,
100100100000200000000000300000400000400000000000,
#GOGOEND
100000000000100000100000200000000000200000000000,
100000100000100000100000200000000000200000000000,
100000100000200000000000100000100000200000000000,
100000100100100000100000200000000000200000000000,
100000000000100000100000200000000000200000000000,
100000100000100000100000200000000000200000000000,
100000100000200000000000100000100000200000000000,
100000100100100000100000200000000000400000000000,
100000000000200000100000100000000000200000100000,
100000000000200000100000100000100000200000000000,
100000000000200000100000100000000000200000100000,
100000100000200000000000100100100000400000000000,
100000000000100000100000200000000000200000000000,
100000100000100000100000200000000000200000000000,
100000100000200000000000100000100000200000000000,
100000100100100000100000200000000000200000000000,
100000000000100000100000200000000000200000000000,
100000100000100000100000200000000000200000000000,
100000100000200000000000100000100000200000000000,
100000100100100000100000200000000000400000000000,
100000000000200000100000100000000000200000000000,
100000000000200000100000100000000000200000000000,
100000000000200000100000100000200000200000000000,
500000000000000000000000000000000000000008000000,
100000000000200000100000100000000000200000000000,
100000000000200000100000100000000000200000000000,
100000000000200000100000100000200000200000000000,
500000000000000000000000000000000000000008000000,
100000000000200000100000100000000000200000000000,
100000000000200000100000100000000000200000000000,
100000000000400000100000100000000000400000400000,
000000500000000000000000000000000000000008000000,
300000300000000000300000300000000000300000300000,
000000000000000000000000000000000000000000000000,
300000000300000000300000400000000400000000400000,
200000000000200000000000200000000000300000000000,
#GOGOSTART
100000100100100000100000200000000000200000000000,
100000100100100000100000200000000000200000000000,
100000100000400000000000100000100000400000000000,
100100100000100000100000200000200000200000000000,
100000100100100000100000200000000000200000000000,
100000100100100000100000200000000000200000000000,
100000100000400000000000100000100000400000000000,
100100100000100000100000200000200000200000000000,
300000000000300000000000300000000000300000000000,
400000000000000000000000000000000000000000000000,
600000000000000000000000000000000000000008000000,
#GOGOEND
400000000000000000000000000000000000000000000000,
#GOGOSTART
100100100000200000000000100000100000200000000000,
100100100000200000000000100000200000200000000000,
100100100000200000000000100000100000200000000000,
100100100000200000000000300000400000400000000000,
#GOGOEND
#END

COURSE:Normal
LEVEL:4
BALLOON:7,15
SCOREINIT:780
SCOREDIFF:190
#START
000000000000000000000000000000000000000000000000,
000000000000000000000000000000000000000000000000,
100000000000000000000000100000000000000000000000,
100000000000000000000000100000000000000000000000,
#GOGOSTART
100000100000100000000000200000000000200000000000,
100000100000100000000000200000000000200000000000,
100000100000100000000000200000000000200000000000,
500000000000000000000000000000000008000000000000,
#GOGOEND
100000000000100000100000100000000000200000000000,
100000000000100000100000100000000000000000000000,
100000100000100000000000100000100000100000000000,
200000000000200000200000200000000000000000000000,
100000000000100000100000100000000000200000000000,
100000000000100000100000100000000000000000000000,
100000100000100000000000100000100000100000000000,
500000000000000000000000000008000000000000000000,
100000000000200000000000100000000000200000000000,
100000000000200000000000100000000000200000000000,
100000000000200000000000100000000000200000000000,
7008,
100000000000100000100000100000000000200000000000,
100000000000100000100000100000000000000000000000,
100000100000100000000000100000100000100000000000,
200000000000200000200000200000000000000000000000,
100000000000100000100000100000000000200000000000,
100000000000100000100000100000000000000000000000,
100000100000100000000000100000100000100000000000,
500000000000000000000000000008000000000000000000,
100000000000100000000000200000000000200000000000,
100000000000100000000000200000000000200000000000,
100000000000100000100000100000000000000000000000,
500000000000000000000000000000000008000000000000,
100000000000200000000000200000000000200000000000,
100000000000200000000000200000000000200000000000,
100000000000200000200000200000000000000000000000,
500000000000000000000000000000000008000000000000,
100000000000100000000000200000000000200000000000,
100000000000100000000000200000000000200000000000,
7,
08,
300000300000000000300000300000000000300000300000,
000000000000000000000000000000000000000000000000,
600000000000000000000000000000000008000000000000,
100000000000000000000000000000000000400000000000,
#GOGOSTART
100000000000100000100000100000000000200000000000,
100000000000100000100000100000000000000000000000,
100000100000100000000000200000200000200000000000,
500000000000000000000000000008000000000000000000,
100000000000100000100000100000000000200000000000,
100000000000100000100000100000000000000000000000,
100000100000100000000000200000200000200000000000,
500000000000000000000000000008000000000000000000,
300000000000300000000000300000000000300000000000,
400000000000000000000000000000000000000000000000,
600000000000000000000000000000000008000000000000,
#GOGOEND
400000000000000000000000000000000000000000000000,
#GOGOSTART
100000100000100000000000200000000000200000000000,
100000100000100000000000200000000000200000000000,
100000100000100000000000200000000000200000000000,
100000100000100000000000400000000000400000000000,
#GOGOEND
#END

COURSE:Easy
LEVEL:3
BALLOON:5,12
SCOREINIT:730
SCOREDIFF:190
#START
000000000000000000000000000000000000000000000000,
000000000000000000000000000000000000000000000000,
100000000000000000000000100000000000000000000000,
100000000000000000000000100000000000000000000000,
#GOGOSTART
100000000000000000000000100000000000100000000000,
100000000000000000000000100000000000100000000000,
100000000000000000000000100000000000100000000000,
500000000000000000000000000008000000000000000000,
#GOGOEND
100000000000100000000000100000000000000000000000,
200000000000200000000000200000000000000000000000,
100000000000100000000000200000000000200000000000,
100000000000100000000000100000000000000000000000,
100000000000100000000000100000000000000000000000,
200000000000200000000000200000000000000000000000,
100000000000100000000000200000000000200000000000,
500000000000000000000000000008000000000000000000,
100000000000000000000000100000000000000000000000,
100000000000000000000000100000000000100000000000,
100000000000000000000000100000000000000000000000,
70000800,
100000000000100000000000100000000000000000000000,
200000000000200000000000200000000000000000000000,
100000000000100000000000200000000000200000000000,
100000000000100000000000100000000000000000000000,
100000000000100000000000100000000000000000000000,
200000000000200000000000200000000000000000000000,
100000000000100000000000200000000000200000000000,
500000000000000000000000000008000000000000000000,
100000000000000000000000100000000000100000000000,
100000000000000000000000100000000000100000000000,
100000000000000000000000200000000000000000000000,
500000000000000000000000000008000000000000000000,
100000000000000000000000100000000000100000000000,
100000000000000000000000100000000000100000000000,
100000000000000000000000200000000000000000000000,
500000000000000000000000000008000000000000000000,
100000000000000000000000100000000000100000000000,
100000000000000000000000100000000000100000000000,
7,
08,
300000000000000000300000000000000000300000000000,
000000000000000000000000000000000000000000000000,
600000000000000000000000000000000000000000000008,
,
#GOGOSTART
100000000000100000000000200000000000000000000000,
100000000000100000000000200000000000000000000000,
100000000000200000000000100000000000200000000000,
500000000000000000000000000008000000000000000000,
100000000000100000000000200000000000000000000000,
100000000000100000000000200000000000000000000000,
100000000000200000000000100000000000200000000000,
500000000000000000000000000008000000000000000000,
300000000000300000000000300000000000300000000000,
300000000000000000000000000000000000000000000000,
600000000000000000000000000000000000000000000008,
#GOGOEND
,
#GOGOSTART
100000000000000000000000100000000000100000000000,
100000000000000000000000100000000000100000000000,
100000000000000000000000100000000000100000000000,
100000000000000000000000300000000000300000000000,
#GOGOEND
#END
