//TJADB Project
TITLE:Countdown
TITLEJA:カウントダウン
SUBTITLE:--NormCore/Detective Conan
SUBTITLEJA:「名探偵コナン」より
BPM:194
WAVE:Countdown.ogg
OFFSET:-1.353
DEMOSTART:51.887

COURSE:Oni
LEVEL:8
BALLOON:3
SCOREINIT:510
SCOREDIFF:133
#START
,
,
,
33033033,
03307083,
0011201020002010,
0011101022202010,
0011201020002010,
0011101022202010,
0011201020002010,
0011101022202010,
0011201020102010,
0020202210221110,
0222,
2222,
1222,
2000202220102010,
0010201220102010,
0010201220102010,
0010201220102010,
0012201020222030,
01202020,
2000200020222020,
1222,
2000201120202010,
0010201220102010,
0010201220102050,
,
000000000000000000000000000000000008000000100000,
01202012,
0020100020221020,
0022201000221010,
0020201220102010,
01202012,
0020201000222010,
0010201120102010,
0010201022102010,
0010201120102050,
000000000000000000000000000000000008000000300000,
0030301110301110,
03033003,
#GOGOSTART
0010201110102010,
0020201110102010,
0010201110102010,
0020201110102010,
0010201120102010,
0010201022102010,
0010201120102030,
0020201022112210,
0011201110102010,
0022201110102010,
0011201110102010,
0030221022221050,
000000000000000000000008000000100200100000500000,
000000000000000000000008000000100200100000500000,
000000000000000000000000000000000008000000300000,
#GOGOEND
03300003,
0011201020002010,
0011101022202010,
0011201020002010,
0011101022202010,
0011201020002010,
0011101022202010,
0011201020102030,
0020201022112210,
#GOGOSTART
00000003,
03030003,
0010200011102030,
0010200011202010,
0010201120102010,
0010201022102010,
0010201120102030,
0020201022112210,
0011201110102010,
0022201110102010,
0011201110102010,
0030221022221050,
000000000000000000000008000000100200100000500000,
000000000000000000000008000000100200100000500000,
000000000000000000000000000000000008000000300000,
#GOGOEND
03300003,
0011201020002010,
0011101022202010,
0010201120002010,
0011101022202010,
0010201120102010,
0011101022202010,
0010201120102030,
0020201022112210,
33030306,
000000000000000000000000000008000000200200100000,
#END

COURSE:Hard
LEVEL:5
BALLOON:15,20,20
SCOREINIT:630
SCOREDIFF:170
#START
,
,
,
33033033,
03300003,
00101022,
00112211,
00101022,
00112211,
00101022,
00112211,
00101022,
00000003,
0222,
2222,
1222,
20202021,
01202021,
01202021,
01202021,
01202223,
0222,
2222,
1222,
20202021,
01202021,
01202027,
,
00008001,
01002002,
00000111,
01110111,
02000001,
01002002,
02220111,
00201101,
00201101,
00011105,
000000000000000000000000000000000008000000300000,
03303303,
03033001,//41
#GOGOSTART
02201001,
02201001,
02201021,
00000221,
00202021,
00202021,
00202023,
00000001,
02201001,
02201001,
02201021,
03000115,
000000000000000000000000000000000008000000000000,
00000115,
000000000000000000000000000000000008000000000000,//56
#GOGOEND
00000009,
,
09,
8,
00000001,
01202021,
00112211,
01202223,
00000003,//65
#GOGOSTART
00000003,
03030003,
00000004,
00000221,
00202021,
00202021,
00202023,
00000001,
02211001,
02201001,
02211021,
03000115,
000000000000000000000000000000000008000000000000,
00000115,
000000000000000000000000000000000008000000000000,//80
#GOGOEND
00000009,
,
09,
8,
00000001,
01202021,
00112211,
01202021,
01112211,
33030306,
000000000000000000000000000000000000000008000000,
,
#END

COURSE:Normal
LEVEL:4
BALLOON:9,10,13,13
#START
,
,
,
7,
00800001,
00101001,
00101005,
000000000000000000000000000000000000000008000000,
00000001,
00101001,
00101005,
000000000000000000000000000000000000000008000000,
00000003,
,
,
,
00000001,
00101001,
00101001,
00101001,
00000003,
,
,
,
00000011,
00000011,
00000017,
,
00080000,
00002002,
00000001,
00010001,
,
00002002,
00000001,
00001001,
00001001,
00000005,
000000000000000000000000000000000008000000000000,
,
00000001,//41
#GOGOSTART
00101001,
00101001,
00101003,
00000001,
00101001,
00101001,
00101003,
00000001,
00101001,
00101001,
00101003,
00000005,
000000000000000000000000000000000008000000000000,
00000005,
000000000000000000000000000000000008000000000000,//56
#GOGOEND
00000009,
,
09,
8,
00000001,
00202001,
00202001,
00202004,
00000003,//65
#GOGOSTART
00000003,
03030003,
00000004,
00000001,
00101001,
00101001,
00101003,
00000001,
00101001,
00101001,
00101003,
00000005,
000000000000000000000000000000000008000000000000,
00000005,
000000000000000000000000000000000008000000000000,//80
#GOGOEND
00000009,
,
09,
8,
00000001,
00202001,
00202001,
00202001,
0220,
33030306,
000000000000000000000000000000000000000008000000,
,
#END

COURSE:Easy
LEVEL:2
BALLOON:7,8,10,10
#START
,
,
,
7,
08000001,
00000001,
00000005,
000000000000000000000000000000000000000008000000,
00000001,
00000001,
00000005,
000000000000000000000000000000000000000008000000,
00000003,
,
,
,
00000001,
00000001,
00000001,
00000001,
00000003,
,
,
,
00000001,
00000001,
00000007,
,
00080000,
00001001,
00000001,
00000001,
,
00001001,
00000001,
00000001,
00000001,
00000005,
000000000000000000000000000000000008000000000000,
,
00000001,//41
#GOGOSTART
00000001,
00000001,
00000003,
00000001,
00001001,
00000001,
00001003,
00000001,
00000001,
00000001,
00000003,
00000005,
000000000000000000000000000000000008000000000000,
00000005,
000000000000000000000000000000000008000000000000,//56
#GOGOEND
00000009,
,
09,
8,
00000001,
00000001,
00000001,
00000002,
00000003,//65
#GOGOSTART
00000003,
00000003,
00000003,
00000001,
00001001,
00000001,
00001003,
00000001,
00000001,
00000001,
00000003,
00000005,
000000000000000000000000000000000008000000000000,
00000005,
000000000000000000000000000000000008000000000000,//80
#GOGOEND
00000009,
,
09,
8,
00000001,
00000001,
00000001,
00000001,
,
30000006,
000000000000000000000000000000000000000008000000,
,
#END
