//TJADB Project
TITLE:GERBERA
TITLEJA:GERBERA
SUBTITLE:--BEMANI Sound Team “TAG”/SOUND VOLTEX
SUBTITLEJA:BEMANI Sound Team "TAG" 「SOUND VOLTEX」より
BPM:205
WAVE:GERBERA.ogg
OFFSET:-1.307
DEMOSTART:80.926

COURSE:Oni
LEVEL:10
BALLOON:2
SCOREINIT:350
SCOREDIFF:88
#START
10220210,
11022010,
10220210,
12022010,
10120210,
11022010,
1122112212112040,
000000200100200000200000101010101010200000000000,//8
#GOGOSTART
3000211120102020,
0011221122212020,
1011211120112120,
000000200200200100100100200000101010200100200000,
0011211222102020,
0011212221112000,
1022111220122020,
0020202022222222,//16
#GOGOEND
1111,
2222,
580580680680,
300000200000100200100000101010101010100000200000,
3000201000201222,
1020120210210120,
1000201000201222,
1020120210122000,
1000201000201222,
1020120210210120,
1000201000201222,
1020120210122000,
3000102000201222,
1020120210210120,
1000102000201222,
1020120210122000,
1000102000201222,
1020120210210120,
1000102000201222,
1022102110221000,
3002102010021022,
1202102010221000,
1002102010221022,
100200000200100000200000101010100000200000000000,
1002102010121022,
1202102012221000,
1002102010021022,
100200000200100000200000101010100100100000200000,
3001201210012012,
1101202011102000,
1001201210112012,
100100000100200000200000101010100000200000000000,
1001201210212012,
1101202011112000,
1001201210012012,
100100000100200000200000102020200200100000000000,
1000001020021020,
0010000010021020,
1000001020021020,
0010000010021020,
1000001020021020,
0010000010021020,
1000001020021020,
0010000010021020,
3000201020221020,
2010200010021020,
1000201020221020,
1010200010021020,
1000201020221020,
2010200010021020,
1122112112211040,
000000200100200000200000101010101010200000000000,//68
#GOGOSTART
3000211120102020,
0011221122212020,
1011211120112120,
000000200200200100100100200000101010200100200000,
0011211222102020,
0011212221112000,
1022111220122020,
0012121212112111,
20330403,
0011122212112000,
1011211220120120,
100000000000200000500000000000000000000008000000,
3001002020112222,
1001002020112211,
2011122120020020,
500000000000000008000000101010101010200000000000,//84
#GOGOEND
1000111110101020,
000000200200200100100100202010100000//86
#SCROLL 5.73
#GOGOSTART
700000800000,
#SCROLL 1
3012111120112120,
000000200100200200100100200000101010200100200000,
0012111222102020,
0012112211212000,
2021211221122020,
000000200200100100100100202010101010200000000000,
40330403,
0011212212122000,
2021122120120120,
2011201220212022,
1021001040112121,
1021001040112221,
2012111220120040,
121010121010121210300000,
3021102011201020,
1021102010221020,
33343334,
101010100200200100100100101010100200200100100100,//104
#GOGOEND
2,
#END

COURSE:Hard
LEVEL:8
BALLOON:16
SCOREINIT:380
SCOREDIFF:120
#START
10010020,
01001020,
10010020,
01002020,
10010020,
01001020,
500000000000000000000000000000000008000000300000,
0000000011104000,//8
#GOGOSTART
3000111010102020,
0010111010102020,
1000111020102020,
0022201020102020,
0010111010102020,
0010111010102000,
1000111020102020,
02222222,//16
#GOGOEND
1111,
2222,
3333,
1020200011104000,
30010020,
,
10010020,
01001020,
10010020,
,
10010020,
01001020,
10010020,
,
10010020,
01001020,
10010020,
,
10010020,
1122,
30011002,
1001102010002000,
10011012,
1001102010002000,
10011112,
1001102010002000,
10012000,
1001102010102020,
10011002,
1002202010002000,
10011012,
1002202010002000,
10011112,
1002202010002000,
10012000,
1002202010000000,
1000000020020020,
0000000020020020,
1000000020020020,
0000000020010020,
1000000020020020,
0000000020020020,
1000000020020020,
0000000020010020,
10010020,
01001020,
10010020,
01002020,
10010020,
01001020,
500000000000000000000000000000000008000000300000,
0000000011104000,//68
#GOGOSTART
3000111010102020,
0010111010102020,
1000111020102020,
0022201020102020,
0010111010102020,
0010111010102000,
1000111020102020,
0020222020001000,
30330403,
0011101010202000,
1000222010010020,
100000000000100000500000000000000000000008000000,
1001001020002220,
1001001020002220,
1000222010010020,
500000000000000008000000100100100000400000000000,//84
#GOGOEND
10001112,
002220202000//86
#GOGOSTART
4000,
3000111020102020,
0022201020102020,
0010111010102020,
0010111010102000,
1000111020102020,
0022202011104000,
30330403,
0011102010222000,
1000222010010020,
3344,
1001001020222020,
1001001020222020,
1000222010010020,
500000000000000008000000100010001000300000000000,
7,
00008002,
11121112,
1110102011101020,//104
#GOGOEND
3,
,
#END

COURSE:Normal
LEVEL:7
BALLOON:9
#START
10010010,
0011,
20020020,
0022,
10010010,
0011,
500000000000000000000000000000000008000000300000,
0034,//8
#GOGOSTART
30001011,
00000022,
10001011,
00002022,
00001111,
00002220,
10001011,
,//16
#GOGOEND
1111,
1111,
3333,
11103040,
10010020,
,
10010010,
01002020,
10010020,
,
10010010,
01002020,
10010020,
,
10010020,
02001020,
10010020,
,
10010020,
1111,
31,
10011020,
1011,
10012020,
10001110,
10011020,
12,
500000000000000000000008000000000000000000000000,
11,
10011020,
1011,
10012020,
10001110,
10011020,
12,
500000000000000000000008000000000000000000000000,
1000000020020020,
0000000020020020,
0000000020020020,
0000000020010020,
0000000020020020,
0000000020020020,
0000000020020020,
0000000020010020,
10010010,
0011,
20020020,
0022,
10010010,
0011,
500000000000000000000000000000000008000000300000,
0034,//68
#GOGOSTART
30001011,
00000022,
10001011,
00002022,
00001111,
00002220,
10001011,
0002,
10110101,
00111020,
1000000010010010,
500000000000000000000000000000000008000000000000,
1001001010002000,
1001001010002000,
1000000010010010,
500000000000000000000000000000000008000000000000,//84
#GOGOEND
10001111,
022220//86
#GOGOSTART
40,
30001011,
00002022,
00001111,
00002220,
10001011,
02222020,
30110101,
00111020,
1000000010010010,
1122,
1001001010002000,
1001001010002000,
1000000010010010,
600000000000000000000000000008000000400000000000,
7,
80000001,
1111,
11111110,//104
#GOGOEND
3,
,
#END

COURSE:Easy
LEVEL:4
BALLOON:8
#START
10010010,
,
20020020,
,
10010010,
,
500000000000000000000000000000000000000008000000,
04,//8
#GOGOSTART
30001011,
,
10001011,
000000500000000000000000000000000000000008000000,
00001011,
,
10001011,
,//16
#GOGOEND
11,
11,
1111,
600000000000000000000000000008000000000000000000,
10010010,
,
10010010,
01001000,
10010010,
,
20020020,
02002000,
10010010,
,
10010010,
01001000,
10010010,
,
20020020,
500000000000000000000008000000000000000000000000,
31,
12,
1011,
12,
1011,
12,
11,
500000000000000000000008000000000000000000000000,
11,
12,
1011,
12,
1011,
12,
11,
500000000000000000000008000000000000000000000000,
1,
02,
,
02,
,
02,
,
02,
10010010,
,
20020020,
,
10010010,
,
500000000000000000000000000000000000000008000000,
04,//68
#GOGOSTART
30001011,
,
10001011,
000000500000000000000000000000000000000008000000,
00001011,
,
10001011,
,
30030303,
,
33,
600000000000000000000000000008000000000000000000,
33,
44,
34,
600000000000000000000000000008000000000000000000,//84
#GOGOEND
10001011,
000//86
#GOGOSTART
4,
30001011,
000000500000000000000000000000000000000008000000,
00001011,
,
10001011,
000000500000000000000000000008000000000000000000,
30030303,
,
33,
3330,
33,
44,
34,
600000000000000000000000000000000008000000000000,
7,
8,
3333,
600000000000000000000000000008000000000000000000,//104
#GOGOEND
3,
,
#END
