//TJADB Project
TITLE:Xevel
TITLEJA:Xevel
SUBTITLE:--Tatsh a.k.a. Zeami/CHUNITHM
SUBTITLEJA:Tatsh 「CHUNITHM」より
BPM:176
WAVE:Xevel.ogg
OFFSET:-3.303
DEMOSTART:43.910

COURSE:Oni
LEVEL:10
BALLOON:60
SCOREINIT:300
SCOREDIFF:70
#START
#SCROLL 0.75
3222,
2022,
22,
7,
0,
0008,
#BPMCHANGE 185
#SCROLL 3
500000000000000008000000
#SCROLL 1
100100100100100100100100,
1022102012201020,
1022102012021010,
1022122012221210,
1000200011111111,
1022102101211020,
1221122101211221,
1021102101211020,
1221122030303021,
1022102101211020,
1221122101211221,
1021102101211020,
3000300011103030,
1022102101211020,
1221122112201220,
1221122112211221,
100000200000100200100000102020100000100200100100,
2010202010211020,
1000000000000021,
2010202010221020,
1000000011111111,
2212212211211211,
1111211112112112,
1212112122122111,
2212212030030011,//31
#GOGOSTART
1022102110221010,
1021102211011012,
1022102110221010,
1021102030303030,
1021102210211010,
1022102112012011,
1021102210211020,
3030303011111111,
1022102110221010,
1021102211011012,
1022102110221010,
1021102011111111,
2011201120111120,
2011201111211120,
2011201120111120,
100100100100100100100100101010101010101010101010,//47
#GOGOEND
10210210,
01211020,
1000201000102002,
1000000000002222,
1220201220201220,
2012202012212211,
1220101220101220,
1012201222112211,
1220201220101220,
2012201012211221,
1122102211201122,
1022112011221212,
1020122010201222,
1010121210101222,
1012122212112210,
1221122112211122,
1221122112211122,
1221211030030111,//65
#GOGOSTART
1022102110221011,
1021102211211012,
1022102110221011,
1021102030303030,
1021102210211011,
1022102112012211,
1021102210211020,
300000300000300000300000101010100100100100100100,
1022102110221011,
1021102211211012,
1022102110221020,
300000300000300000300000100100100100101010100100,
2011201220111120,
200000100100200000101010200100100200100100200000,
2011201220111120,
200000100100200000101010200100100200100100200000,
400000101010200000100200200100100200200100100100,
200000100100200000101010200100100200200100100100,
200000101010200000100200200100100200200100100100,
101010100100101010100100101010100100500000000008,//85
#GOGOEND
0000//86
#GOGOSTART
301022101021,
2212211211212210,
3021101221121221,
2012211211212210,
3022101021121221,
2212211211212210,
3021102112211221,
100200200100202020100100200200100100200200100100,
100100200200101010200200100200200100200200100100,
1211211212112112,
1221221212212211,
100200200100100200200100100100200200102010201020,//97
00000000
#SCROLL 2
210012000000000000000000,
#END

COURSE:Hard
LEVEL:8
BALLOON:40
SCOREINIT:400
SCOREDIFF:95
#START
#SCROLL 0.75
3222,
2022,
22,
#BPMCHANGE 175
7,
,
0008,
#BPMCHANGE 185
#SCROLL 1
4,
1111,
10101011,
10101011,
1,
1010100011101010,
2010100011101010,
2010100011101010,
21213330,
1010100011102010,
2010100011102010,
2010100011102010,
3000300011103030,
1010100011102010,
2010100011102010,
1110201011102010,
300000300000300000000000500000000000000008000000,
2020202020222020,
2000000000000022,
2020202020222020,
2,
1011101010111010,
500000000000000000000000000000000000000008000000,
2022202020222020,
500000000000000008000000300000000300000000300000,//31
#GOGOSTART
1011100010111010,
1011101020102000,
1011100010111010,
11213333,
1011100010111010,
1011101020102000,
1011101020111010,
300000300000300000300000500000000000000008000000,
1011100010111010,
1011101020102000,
1011100010111010,
100000100000200000100000500000000000000008000000,
2011101020001010,
2011101020001010,
2011101020001010,
500000000000000000000000000000000000000008000000,//47
#GOGOEND
10210210,
01211020,
10210120,
1,
12212212,
21221010,
12212212,
21220000,
12212212,
21221010,
10121121,
1000102010102220,
10121121,
1010201010102220,
1010201010102220,
500000000000000000000000000000000000000008000000,
500000000000000000000000000000000000000008000000,
2000000030030110,//65
#GOGOSTART
1011100010111010,
1011101020102000,
1011100010111010,
11213333,
1011100010111010,
1011101020102000,
1011101020111010,
300000300000300000300000500000000000000008000000,
1011100010111010,
1011101020102000,
1011100010111010,
300000300000300000300000500000000000000008000000,
2011101020001010,
2011101020001010,
2011101020001010,
2011101020001010,
2011101020102010,
2011101020102010,
2011101020111010,
600000000000000000000000000000000000000000000008,//85
#GOGOEND
0000//86
#GOGOSTART
301020101022,
21211210,
3000101020101022,
21211211,
3000101020101022,
21211210,
30201121,
3000200010102011,
1010200010102011,
1010201110202011,
1010201110202010,
600000000000000000000000000000000000000000000008,//97
#MEASURE 23/24
#GOGOEND
000000000000
#BPMCHANGE 123.33
#SCROLL 1.5
30
#BPMCHANGE 185
#SCROLL 1
000
#BPMCHANGE 123.33
#SCROLL 1.5
30
#BPMCHANGE 185
#SCROLL 1
000000000000000000000000000,
#MEASURE 4/4
,
,
,
,
,
#END

COURSE:Normal
LEVEL:7
BALLOON:24,25,12
SCOREINIT:620
SCOREDIFF:153
#START
#SCROLL 0.75
3,
1,
11,
#BPMCHANGE 175
7,
,
0008,
#BPMCHANGE 185
#SCROLL 1
,
1111,
10101011,
10101011,
1,
10101110,
10101110,
10101110,
10102220,
10101110,
10101110,
10101110,
30302220,
10101120,
10101120,
11201120,
500000000000000000000000000000000008000000000000,
20222020,
2,
20222020,
2,
9,
,
0900,
8,//31
#GOGOSTART
10101120,
10111110,
10201120,
500000000000000000000008000000000000000000000000,
10101120,
10111110,
10201120,
500000000000000000000008000000000000000000000000,
10101120,
10111110,
10201120,
500000000000000000000008000000000000000000000000,
10221020,
10221020,
10221020,
500000000000000000000000000000000000000000000008,//47
#GOGOEND
,
,
,
,
10110110,
11011020,
10110110,
11010000,
10110110,
11011020,
10201011,
10201011,
10201022,
10201022,
1212,
9,
09,
8,//65
#GOGOSTART
10101120,
10111110,
10201120,
500000000000000000000008000000000000000000000000,
10101120,
10111110,
10201120,
500000000000000000000008000000000000000000000000,
10101120,
10111110,
10201120,
500000000000000000000008000000000000000000000000,
10221020,
10221020,
10221020,
10221020,
5,
000000000000000000000000000000000008000000000000,
6,
000000000000000000000000000000000000000000000008,//85
#GOGOEND
0//86
#GOGOSTART
310,
20202220,
30111010,
20202220,
30111010,
20202220,
30201120,
30201111,
30201120,
30201111,
30201122,
600000000000000000000000000000000000000000000008,//97
#MEASURE 23/24
#GOGOEND
000000000000
#BPMCHANGE 123.33
#SCROLL 1.5
30
#BPMCHANGE 185
#SCROLL 1
000
#BPMCHANGE 123.33
#SCROLL 1.5
30
#BPMCHANGE 185
#SCROLL 1
000000000000000000000000000,
#MEASURE 4/4
,
,
,
,
,
#END

COURSE:Easy
LEVEL:5
BALLOON:21,20,12
SCOREINIT:450
SCOREDIFF:110
#START
#SCROLL 0.75
3,
1,
11,
#BPMCHANGE 175
7,
,
0008,
#BPMCHANGE 185
#SCROLL 1
,
11,
1011,
1011,
1,
1110,
1110,
1110,
1130,
1110,
1110,
1110,
3330,
1110,
1111,
1111,
500000000000000000000000000008000000000000000000,
2222,
2,
2222,
2,
9,
,
0900,
8,//31
#GOGOSTART
1110,
10111000,
1111,
500000000000000000000008000000000000000000000000,
1110,
10111000,
2222,
500000000000000000000008000000000000000000000000,
1110,
10111000,
1111,
500000000000000000000008000000000000000000000000,
1111,
2222,
1111,
500000000000000000000000000000000000000000000008,//47
#GOGOEND
,
,
,
,
10010010,
01001000,
10010010,
01000000,
10010010,
01001000,
1011,
1011,
1011,
1022,
2022,
9,
09,
8,//65
#GOGOSTART
1110,
10111010,
1111,
500000000000000000000008000000000000000000000000,
1110,
10111010,
2222,
500000000000000000000008000000000000000000000000,
1110,
10111010,
1111,
500000000000000000000008000000000000000000000000,
1111,
2222,
1111,
2222,
5,
000000000000000000000000000000000008000000000000,
6,
000000000000000000000000000000000000000008000000,//85
#GOGOEND
0//86
#GOGOSTART
300,
10101110,
3011,
10101110,
3011,
10101110,
3111,
30101110,
30101110,
30101110,
30101110,
60000008,//97
#MEASURE 23/24
#GOGOEND
000000000000
#BPMCHANGE 123.33
#SCROLL 1.5
30
#BPMCHANGE 185
#SCROLL 1
000
#BPMCHANGE 123.33
#SCROLL 1.5
30
#BPMCHANGE 185
#SCROLL 1
000000000000000000000000000,
#MEASURE 4/4
,
,
,
,
,
#END
