//TJADB Project
TITLE:EterNal Ring
TITLEJA:EterNal Ring
SUBTITLE:--museo
SUBTITLEJA:museo
BPM:224
WAVE:EterNal Ring.ogg
OFFSET:-1.163
DEMOSTART:46.955

COURSE:Oni
LEVEL:10
BALLOON:22,22
SCOREINIT:390
SCOREDIFF:80
#START
#MEASURE 3/4
#GOGOSTART
333,
433,
333,
400000300000111100,
301210,
401210,
300000222200200100,
101010101111,//8
#GOGOEND
202,
200200202,
200200202,
100000202,
222,
200200202,
200220,
100000202,
222,
122,
200000200000222200,
100000220200200000,
222,
100000200022200000,
202,
100020002222,
122,
100000200000200022,
100200202,
100000000200200020,
122,
100000200000200022,
100000000000200011,
100022221222,
100000100200100022,
100000100200100020,
100000200100200020,
100022200100200020,
100000100200100222,
100000100200100220,
101101201,
100010001000200010001000200200200200,
110110,
#MEASURE 4/4
300300000000200000100010,
#MEASURE 3/4
222111222,
#MEASURE 4/4
100010001000200020002000100010001000200200200200,
#MEASURE 3/4
110110,
#MEASURE 4/4
300300000000200000100010,
#MEASURE 3/4
200020002000100010001000200200200200,
#MEASURE 4/4
100010001000200020002000100100100100200200200200,
#MEASURE 3/4
100010001000100010001000100100100100,
200020002000200020002000200200200200,
100100100100200200200200100010001000,
222211112222,
7,
000008,
600000000000000000000000000008000000,
302,//56
#GOGOSTART
300102100,
112,
112,
500000000008000000000000100000000200,
100102102,
100102102,
112,
500008000000100000000000200000000000,
300102100,
112,
300102102,
100100202,
100122122,
122122111,
222111222,
111222112,
200111222,
111222111,
222122122,
122122112,
302012,
302011,
300011201020,
300012201020,
222211112222,
111122221111,
130303,//83
#GOGOEND
3,
2,
2,
2,
2,
202,
202,
200002200,
200022,
102020222000,
202020222000,
100200200222200000,
202020221020,
100000200000200000200200200000202000,
200200200222100220,
100200200200200222,
200020002000200020002000200200200200,
110110,
300200101,
222111222,
100010001000200020002000100200200200,
110110,
300200101,
200020002000100010001000200200200200,
100010001000200020002000100200200200,
100010001000100010001000100100100100,
200020002000200020002000200200200200,
100100100100200200200200100010001000,
222211112222,
7,
000008,
600000000000000000000000000008000000,
322,//116
#GOGOSTART
300100100120100100,
112121,
112121,
100100100100100000100000200000102000,
100100100120100120,
100100100120100120,
112121,
111021112222,
100100100120100100,
112121,
100100100120100120,
100100200100200120,
100112112,
112112111,
222122122,
122122112,
200122122,
122122111,
222112112,
112112112,
301020221020,
301020221120,
302010221020,
302010221220,
222211221111,
111122112222,
222211221111,
111122112222,
221122112111,
221122112111,
222211221120,//147
#GOGOEND
3,
#END

COURSE:Hard
LEVEL:7
BALLOON:5,24,10,13,13,10,13,29
SCOREINIT:450
SCOREDIFF:120
#START
#MEASURE 3/4
#GOGOSTART
111,
211,
111,
211,
101210,
201210,
102222,
101010101110,//8
#GOGOEND
202,
222,
222,
100000202,
222,
222,
202,
100000202,
222,
122,
222,
102220,
222,
122,
2,
100000002220,
102,
122,
122,
100000202,
122,
122,
102,
100000001110,
111,
211,
11,
21,
111,
211,
101101101,
708,
330330,
#MEASURE 4/4
33002020,
#MEASURE 3/4
5,
#MEASURE 4/4
000000000000000000000000000000000008000000000000,
#MEASURE 3/4
330330,
#MEASURE 4/4
33002020,
#MEASURE 3/4
5,
#MEASURE 4/4
000000000000000000000000000000000008000000000000,
#MEASURE 3/4
100010001110,
200020002220,
100011102000,
100022202000,
7,
,
,
802,//56
#GOGOSTART
311,
112,
122,
500000000008000000000000100000000000,
112,
112,
122,
500000000008000000000000200000000000,
111,
112,
111,
100100201,
150,
000000000000000008000000100000000000,
7,
000800101,
150,
000000000000000008000000100000000000,
7,
008,
302,
302,
312,
322,
5,
0000000000000000000000080000000000000,
330303,//83
#GOGOEND
3,
2,
2,
2,
2,
202,
202,
200002200,
200022,
102220,
222220,
122220,
222210,
122220,
222220,
122222,
2,
330330,
322,
5,
000000000000000000000008000000000000,
330330,
322,
5,
000000000000000000000008000000000000,
100010001110,
200020002220,
100011102000,
100022202000,
7,
000008,
600000000000000000000000000008000000,
322,//116
#GOGOSTART
111110,
111120,
112120,
102,
111110,
111120,
112120,
100011102000,
111110,
112120,
111110,
100100200100200010,
150,
000000000000000008000000100000000000,
7,
000800101,
150,
000000000000000008000000100000000000,
7,
008,
300022201000,
300022201000,
300011102000,
300011102000,
7,
,
,
008,
6,
000000000000000000000008000000000000,
440404,//147
#GOGOEND
3,
,
,
,
,
#END

COURSE:Normal
LEVEL:6
BALLOON:14,16,16,8,16,16,17
#START
#MEASURE 3/4
#GOGOSTART
111,
222,
111,
2,
112,
112,
122,
1,//8
#GOGOEND
2,
2,
202,
2,
222,
2,
202,
2,
222,
2,
222,
2,
222,
222,
2,
2,
1,
1,
1,
1,
122,
122,
102,
1,
112,
112,
11,
11,
112,
112,
1,
1,
330330,
#MEASURE 4/4
33000000,
#MEASURE 3/4
5,
#MEASURE 4/4
000000000000000000000000000000000008000000000000,
#MEASURE 3/4
330330,
#MEASURE 4/4
33000000,
#MEASURE 3/4
5,
#MEASURE 4/4
000000000000000000000000000000000008000000000000,
#MEASURE 3/4
122,
122,
112,
112,
7,
,
,
8,//56
#GOGOSTART
111,
112,
112,
1,
112,
112,
112,
1,
111,
112,
111,
112,
170,
,
,
008,
170,
,
,
008,
102,
102,
112,
122,
5,
000000000000000000000008000000000000,
330303,//83
#GOGOEND
3,
2,
2,
2,
2,
202,
202,
202,
2,
102220,
202,
102220,
2,
102220,
202,
102220,
2,
330330,
3,
5,
000000000000000000000008000000000000,
330330,
3,
5,
000000000000000000000008000000000000,
122,
122,
112,
112,
7,
000008,
600000000000000000000000000000000008,
,//116
#GOGOSTART
111010,
111020,
111020,
1,
111020,
111020,
111020,
1,
111010,
111020,
111010,
111020,
170,
,
,
008,
170,
,
,
008,
102220,
102220,
101110,
202220,
7,
,
,
008,
6,
000000000000000000000008000000000000,
330303,//147
#GOGOEND
3,
,
,
,
,
#END

COURSE:Easy
LEVEL:4
BALLOON:12,12,12,6,12,12,14
#START
#MEASURE 3/4
#GOGOSTART
1,
1,
1,
2,
101,
101,
500000000000000000000000000000000008,
,//8
#GOGOEND
2,
,
,
,
2,
,
2,
,
2,
2,
2,
2,
202,
202,
2,
2,
1,
1,
1,
1,
101,
101,
101,
1,
110,
110,
11,
11,
110,
110,
500000000000000000000000000000000008,
,
33,
#MEASURE 4/4
3,
#MEASURE 3/4
5,
#MEASURE 4/4
000000000000000000000000000008000000000000000000,
#MEASURE 3/4
33,
#MEASURE 4/4
3,
#MEASURE 3/4
5,
#MEASURE 4/4
000000000000000000000000000008000000000000000000,
#MEASURE 3/4
1,
1,
110,
110,
7,
,
,
8,//56
#GOGOSTART
1,
1,
111,
1,
2,
2,
222,
2,
1,
110,
1,
110,
170,
,
,
008,
170,
,
,
008,
1,
1,
111,
111,
5,
000000000000000008000000000000000000,
33,//83
#GOGOEND
3,
2,
2,
2,
2,
202,
2,
202,
2,
102,
2,
102,
2,
102,
2,
102,
2,
33,
3,
5,
000000000000000008000000000000000000,
33,
3,
5,
000000000000000008000000000000000000,
1,
1,
110,
110,
7,
000008,
600000000000000000000000000000000008,
,//116
#GOGOSTART
1,
1,
111,
1,
2,
2,
222,
2,
1,
110,
1,
110,
170,
,
,
008,
170,
,
,
008,
1,
1,
111,
111,
7,
,
,
008,
6,
000000000000000008000000000000000000,
330303,//147
#GOGOEND
3,
,
,
,
,
#END
