//TJADB Project
TITLE:Marukute Hayakute Susamajii Rhythm
TITLEJA:まるくてはやくてすさまじいリズム
SUBTITLE:--Rissyuu feat. Choco
SUBTITLEJA:立秋 feat.ちょこ
BPM:192
WAVE:Marukute Hayakute Susamajii Rhythm.ogg
OFFSET:-1.400
DEMOSTART:5.766

COURSE:Oni
LEVEL:10
BALLOON:2
SCOREINIT:310
SCOREDIFF:80
#START
#BARLINEOFF
#MEASURE 2/4
22222222,
#BARLINEON
#MEASURE 4/4
11222112,
20112221,
100000200000200000000200000000200000000200202020,
#GOGOSTART
1020112010210201,
0121102011201022,
1020112102021120,
100000200000100000200100102020100000300000000000,
1020112010210201,
0121102011201022,
1020112102021120,
100000200000100000200100102020100000400000000000,
#GOGOEND
11101110,
11111111,
11101110,
#MEASURE 3/4
111,
#MEASURE 4/4
3022102210221020,
1022102210221212,
1012100212112010,
#MEASURE 3/4
111,
#MEASURE 4/4
30012002,
10012212,
10012002,
2122101010211040,
0000001020000022,
1020201010222022,
1211121112111211,
2222,
1010101011112222,
#GOGOSTART
1020112010210201,
0121102011201022,
1020112102021120,
100000200000100000200100102020100000300000000000,
1020112010210201,
0121102011201022,
1020112102021120,
102020100200100100200100100000000000400000000000,
1120112010210201,
000102020100100000200000100100200000100000200200,
1120112102021120,
100010001000100000200100102020100000300000200200,
1121102010210211,
000102020100100100200100100100200000100000100000,
100100200100100100200100200102020100100000200200,
101010101010202020202020100000000000200100100000,
#GOGOEND
11101110,
#MEASURE 3/4
111110,
#MEASURE 4/4
3011201020012010,
#MEASURE 3/4
101120102011,
#MEASURE 4/4
1011201020212010,
#MEASURE 3/4
100000100100200000100000200010001000,
#MEASURE 4/4
2011201020012010,
#MEASURE 3/4
201120102021,
#MEASURE 4/4
2012102012012020,
#MEASURE 3/4
100200202020100010001000700000800000,
#GOGOSTART
#MEASURE 4/4
#SCROLL 0.75
302102102102,
102102112102,
100102102102,
100020100020101120101020,
000020100022100020100022,
100020100022101020101120,
100022100020101120101020,
102022102022
#GOGOEND
100200100
#GOGOSTART
#SCROLL 1.25
300,
0021101010111010,
100111100100101010100100,
200000000100100000100000100000100100100000100010,
100000100010100000100000100000100100000100200000,
0010111020021021,
100010001000200000100100200000100000200100100200,
100010001000200000100200100010001000200000100200,
10101010101010101010101011111111,
#GOGOEND
,
#SCROLL 1
11221102,
11221122,
1020200211112222,
12121123,
0121101110102021,
1020102012101012,
12111211121000
#GOGOSTART
30,
0020112010210201,
000102020100100000200000100100200000100000200200,
1120112102021120,
102020100200100000100200102020100000200000000000,
1120112010210201,
000000100020002000100000100000000000200000000000100000100000200000000000100000000000100100100000,
1120112102021120,
100000001000200010000000100000000000200000100000100020002000100000000000300000000000100100100000,
100100200100100000202020100000200100000200100100,
000102020100100100200100100100200000100000100000,
100100200100100100200100200102020100100000200200,
101010101010202020202020100000000000200100100000,
#GOGOEND
#BPMCHANGE 196
11101110,
#MEASURE 3/4
#BPMCHANGE 200
111110,
#MEASURE 4/4
#BPMCHANGE 204
11101110,
#MEASURE 3/4
#BPMCHANGE 208.5
111110,
#GOGOSTART
#MEASURE 4/4
#BPMCHANGE 217.5
11111111,
#MEASURE 3/4
#BPMCHANGE 231
111010101111,
#MEASURE 4/4
#BPMCHANGE 243
1111111111111111,
#MEASURE 3/4
#BPMCHANGE 248
111110103000,
#GOGOEND
#END

COURSE:Hard
LEVEL:8
BALLOON:9,6
SCOREINIT:390
SCOREDIFF:90
#START
#BARLINEOFF
#MEASURE 2/4
,
#BARLINEON
#MEASURE 4/4
22,
22,
1,
#GOGOSTART
1010202010110101,
0101101010202000,
1010202202022020,
11221140,
1010202010110101,
0101101010202000,
1010202202022020,
11221140,
#GOGOEND
11101110,
11111111,
11101110,
#MEASURE 3/4
111,
#MEASURE 4/4
1010201110201010,
2011102010102020,
1010200110102000,
#MEASURE 3/4
111,
#MEASURE 4/4
30012002,
10012022,
10012002,
10111003,
00012002,
10012022,
11111111,
2222,
7008,
#GOGOSTART
1010202010110101,
0101101010202000,
1010202202022020,
11221140,
1010202010110101,
0101101010202000,
1010202202022020,
11221040,
1010202010110101,
0101101010202000,
1010202202022020,
101010100100100100400000,
1010202010110101,
0101101010202000,
1010202202022020,
1034,
#GOGOEND
11101110,
#MEASURE 3/4
111110,
#MEASURE 4/4
3000101020011010,
#MEASURE 3/4
211120,
#MEASURE 4/4
1000101020011010,
#MEASURE 3/4
211120,
#MEASURE 4/4
1000101020011010,
#MEASURE 3/4
211120,
#MEASURE 4/4
1000101020011010,
#MEASURE 3/4
708,
#GOGOSTART
#MEASURE 4/4
302102102102,
102202101102,
100102102102,
102202101102,
000302102102,
102202101102,
102102111111,
100020200020
#GOGOEND
100000000
#GOGOSTART
300,
0010101010111010,
100000100100101010100100,
1000101010111010,
1000101010110110,
0010300010011010,
101010100100100100100000,
101010100100101010100100,
500000000000000000000000000000000000000000000008,
#GOGOEND
,
22,
22,
2,
11111101,
0101101110101000,
1010101010100011,
10111011101000
#GOGOSTART
30,
0010202010110101,
0101101010202000,
1010202202022020,
11221120,
1010202010110101,
0101101010202000,
1010202202022020,
100010001000100000100000100000100000400000000000,
1010202010110101,
0101101010202000,
1010202202022020,
12211040,
#GOGOEND
#BPMCHANGE 197
11101110,
#MEASURE 3/4
#BPMCHANGE 200
111110,
#MEASURE 4/4
#BPMCHANGE 205
11101110,
#MEASURE 3/4
#BPMCHANGE 209
111110,
#GOGOSTART
#MEASURE 4/4
#BPMCHANGE 217
11101110,
#MEASURE 3/4
#BPMCHANGE 231
111110,
#MEASURE 4/4
#BPMCHANGE 243
11101110,
#MEASURE 3/4
#BPMCHANGE 248
111110,
#GOGOEND
#END

COURSE:Normal
LEVEL:7
BALLOON:6,4
SCOREINIT:560
SCOREDIFF:120
#START
#BARLINEOFF
#MEASURE 2/4
,
#BARLINEON
#MEASURE 4/4
22,
22,
1,
#GOGOSTART
1000100010010101,
00101110,
1000100101001000,
10101110,
1000100010010101,
00101110,
1000100101001000,
500000000000000000000000000000000008000000000000,
#GOGOEND
1111,
1122,
1111,
#MEASURE 3/4
112,
#MEASURE 4/4
30101110,
10102220,
10101110,
#MEASURE 3/4
222,
#MEASURE 4/4
32,
1022,
12,
10111003,
02,
1022,
1122,
1122,
7008,
#GOGOSTART
1000100010010101,
00101120,
1000100101001000,
10102220,
1000100010010101,
00101120,
1000100101001000,
500000000000000000000000000000000008000000000000,
1000100010010101,
00101120,
1000100101001000,
10102220,
1000100010010101,
00101120,
1000100101001000,
500000000000000000000000000000000008000000000000,
#GOGOEND
1111,
#MEASURE 3/4
101110,
#MEASURE 4/4
31,
#MEASURE 3/4
101110,
#MEASURE 4/4
11,
#MEASURE 3/4
202220,
#MEASURE 4/4
11,
#MEASURE 3/4
101110,
#MEASURE 4/4
11,
#MEASURE 3/4
708,
#GOGOSTART
#MEASURE 4/4
3111,
100000101101,
0111,
100000101101,
0311,
100000101101,
100100101101,
1000
#GOGOEND
200
#GOGOSTART
3,
00101011,
10001011,
00101011,
10001011,
00301011,
10101110,
101100101100,
500000000000000000000000000000000000000000000008,
#GOGOEND
,
22,
22,
2,
10102003,
00102220,
1120,
1010220
#GOGOSTART
3,
0000100010010101,
00101120,
1000100101001000,
500000000000000000000000000000000008000000000000,
1000100010010101,
00101120,
1000100101001000,
10102220,
1000100010010101,
00101120,
1000100101001000,
500000000000000000000000000000000008000000000000,
#GOGOEND
#BPMCHANGE 197
1111,
#MEASURE 3/4
#BPMCHANGE 200
101110,
#MEASURE 4/4
#BPMCHANGE 204
1111,
#MEASURE 3/4
#BPMCHANGE 209
101110,
#GOGOSTART
#MEASURE 4/4
#BPMCHANGE 217
1111,
#MEASURE 3/4
#BPMCHANGE 231
101110,
#MEASURE 4/4
#BPMCHANGE 243
1111,
#MEASURE 3/4
#BPMCHANGE 248
101110,
#GOGOEND
#END

COURSE:Easy
LEVEL:5
BALLOON:4,3
SCOREINIT:370
SCOREDIFF:90
#START
#BARLINEOFF
#MEASURE 2/4
,
#BARLINEON
#MEASURE 4/4
11,
11,
1,
#GOGOSTART
1000100010000001,
0111,
1000100100001000,
1111,
1000100010000001,
0111,
1000100100001000,
500000000000000000000000000008000000000000000000,
#GOGOEND
11,
1011,
11,
#MEASURE 3/4
112,
#MEASURE 4/4
31,
1011,
11,
#MEASURE 3/4
222,
#MEASURE 4/4
31,
1022,
11,
10101003,
01,
1022,
11,
2222,
7008,
#GOGOSTART
1000100010000001,
0112,
1000100100001000,
1112,
1000100010000001,
0112,
1000100100001000,
500000000000000000000000000008000000000000000000,
1000100010000001,
0112,
1000100100001000,
1112,
1000100010000001,
0112,
1000100100001000,
500000000000000000000000000008000000000000000000,
#GOGOEND
11,
#MEASURE 3/4
112,
#MEASURE 4/4
31,
#MEASURE 3/4
111,
#MEASURE 4/4
11,
#MEASURE 3/4
111,
#MEASURE 4/4
11,
#MEASURE 3/4
111,
#MEASURE 4/4
11,
#MEASURE 3/4
708,
#GOGOSTART
#MEASURE 4/4
3111,
1011,
0111,
1011,
0311,
1011,
1111,
1000
#GOGOEND
200
#GOGOSTART
3,
0111,
10001011,
0111,
10001011,
0311,
10101110,
1111,
500000000000000000000000000000000000000000000008,
#GOGOEND
,
22,
22,
2,
10101003,
0110,
2220,
1010200
#GOGOSTART
3,
0000100010000001,
0112,
1000100100001000,
500000000000000000000000000008000000000000000000,
1000100010000001,
0112,
1000100100001000,
1112,
1000100010000001,
0112,
1000100100001000,
500000000000000000000000000008000000000000000000,
#GOGOEND
#BPMCHANGE 197
11,
#MEASURE 3/4
#BPMCHANGE 200
111,
#MEASURE 4/4
#BPMCHANGE 204
11,
#MEASURE 3/4
#BPMCHANGE 209
111,
#GOGOSTART
#BPMCHANGE 217
#MEASURE 4/4
11,
#MEASURE 3/4
#BPMCHANGE 231
111,
#MEASURE 4/4
#BPMCHANGE 243
11,
#MEASURE 3/4
#BPMCHANGE 248
111,
#GOGOEND
#END
