//TJADB Project
TITLE:Hung-rock
TITLEJA:ハンロック
SUBTITLE:--Katsuro Tajima -Hungarian Dance No. 6 Rendition-
SUBTITLEJA:
BPM:96
WAVE:Hung-rock.ogg
OFFSET:-2.626
DEMOSTART:49.741 //shinuchi:
8830/4620/2840/1510

COURSE:Oni
LEVEL:10
BALLOON:7,8,32,12,8,3
SCOREINIT:570,1620
SCOREDIFF:135
#START
3000001010102022,
100000102020100000100000200000200200100000100000,
2010202210112110,
200000102020100000100000200000200200100000100100,
1000200012222221,
102020100100200000100100200000100000200200100000,
#MEASURE 2/4
20210111, //7
#MEASURE 4/4
#BPMCHANGE 192
#GOGOSTART
1011202010102010,
1020102010221120,
1121202010102110, //10
#GOGOEND
#BPMCHANGE 96
300000000000500000000008000000000000300000000000,
#BPMCHANGE 160
21121000
#BPMCHANGE 96
22222221, //12
100000100100200000100100100000102020100000100200,
1011221120104022,
100000100100200000100100100000102020100000200000,
100000100100200000100000500008000000200200100000,
300000000000400000000100200000202020100000200000,
1022122270008000, //18
#BPMCHANGE 192
#GOGOSTART
2011201110112210,
2011221110201111,
2011201110112210, //21
#GOGOEND
#BPMCHANGE 96
300000000000500000000000000008000000200000000000,
#BPMCHANGE 160
21121000
#BPMCHANGE 192
10102020, //23
#GOGOSTART
1011202012102010,
1120201012102022,
1020102011201022,
1222122212111000, //27
1011202012102010,
1120201012102022,
1022102210102210,
2022102040003000,
1022102210102220, //32
#GOGOEND
#BPMCHANGE 96
3000222270000080,
#MEASURE 3/4
#BPMCHANGE 160
2112
#BPMCHANGE 130
#SCROLL 1.23
10001010, //34
#MEASURE 4/4
#SCROLL 1
7,
0008,
100000100000200000200000600000000000000008000000,
30122222, //38
500000000000000008000000500000000000000008000000,
100000200100100100222100,
101010100000200000200000500000000000000008000000,
70000800, //42
#BPMCHANGE 192
#GOGOSTART
1012101210122011,
2212101122121000,
1120122022201220,
2211221120304000, //46
2211221022202011,
2022101120222022,
1221122112211221,
2211221120104000, //50
#GOGOEND
10112010
#BPMCHANGE 200
11102011,
#BPMCHANGE 204
12112212
#BPMCHANGE 208
11112222, //52
#BPMCHANGE 213
#GOGOSTART
1011202012102211,
1120201012101122,
100000202020100000200000100100200200100000200200,
1222122212112211, //56
1011202012102022,
1120201012102122,
1022102210112210,
2022102022221111,
1122221122112220, //61
#GOGOEND
#BPMCHANGE 90
3000222270000080,
#MEASURE 2/4
#BPMCHANGE 180
2112
#BPMCHANGE 123
#SCROLL 1.46
1000, //63
#MEASURE 1/4
#BPMCHANGE 97
#SCROLL 1
78,
#MEASURE 2/4
#GOGOSTART
33,
#MEASURE 5/4
4
#GOGOEND
0000, //66
#END

COURSE:Hard
LEVEL:7
BALLOON:5,6,28,8,6,3
SCOREINIT:760,3140
SCOREDIFF:203
#START
30011010,
1011102020001000,
2112,
1022202020002000,
10201022,
2220200020001000,
#MEASURE 2/4
20011010, //7
#BPMCHANGE 192
#MEASURE 4/4
#GOGOSTART
10201100,
12121010,
10201100, //10
#GOGOEND
#BPMCHANGE 96
300000000000500000000008000000000000300000000000,
#BPMCHANGE 160
22202000
#BPMCHANGE 96
00002220, //12
1000201010222020,
1214,
1000201010222020,
2121,
3000400010222020,
1278, //18
#BPMCHANGE 192
#GOGOSTART
20201101,
21212020,
20201100, //21
#GOGOEND
#BPMCHANGE 96
300000000000500000000000000008000000200000000000,
#BPMCHANGE 160
22202000
#BPMCHANGE 192
10102020, //23
#GOGOSTART
10221010,
10221010,
02121010,
2020102010111000,
10221010,
10221010,
20201101,
21214040,
20201100, //32
#GOGOEND
#BPMCHANGE 96
30207008,
#MEASURE 3/4
#BPMCHANGE 160
2220
#BPMCHANGE 130
#SCROLL 1.23
20000000, //34
#MEASURE 4/4
#SCROLL 1
7,
0008,
100000100000200000200000600000000000000008000000,
30002222,
500000000000000008000000500000000000000008000000,
1000000010102220,
200000100000200000200000500000000000000008000000,
70000800, //42
#BPMCHANGE 192
#GOGOSTART
1000100020200011,
12102200,
12121212,
22101330,
2010201020200011,
12102200,
21212121,
21201330, //50
#GOGOEND
12
#BPMCHANGE 200
12,
#BPMCHANGE 204
11102220
#BPMCHANGE 208
10102020, //52
#BPMCHANGE 213
#GOGOSTART
10221010,
10221010,
02121010,
2020102010111000,
10221010,
10221010,
2020102010111000,
10221010,
20201100, //61
#GOGOEND
#BPMCHANGE 90
30207008,
#MEASURE 2/4
#BPMCHANGE 180
2220
#BPMCHANGE 123
#SCROLL 1.46
2000,
#MEASURE 1/4
#BPMCHANGE 97
#SCROLL 1
78,
#MEASURE 2/4
#GOGOSTART
33,
#MEASURE 5/4
4
#GOGOEND
0000, //66
#END

COURSE:Normal
LEVEL:6
BALLOON:5,19,7,5
SCOREINIT:930,5150
SCOREDIFF:313
#START
31,
11102000,
20111000,
11102000,
2111,
2202,
#MEASURE 2/4
1, //7
#MEASURE 4/4
#BPMCHANGE 192
#GOGOSTART
1110,
2220,
1110, //10
#GOGOEND
#BPMCHANGE 96
300000000000500000000000000000000008000000000000,
#BPMCHANGE 160
20
#BPMCHANGE 96
34, //12
10201110,
1214,
10201110,
2120,
30401110,
1210, //18
#BPMCHANGE 192
#GOGOSTART
1110,
22202000,
1110, //21
#GOGOEND
#BPMCHANGE 96
300000000000500000000000000000000008000000000000,
#BPMCHANGE 160
2
#BPMCHANGE 192
1, //23
#GOGOSTART
1211,
1211,
0022,
10111000,
1211,
1211,
2210,
2211,
2210, //32
#GOGOEND
#BPMCHANGE 96
30007008,
#MEASURE 3/4
#BPMCHANGE 160
2
#BPMCHANGE 130
#SCROLL 1.23
00, //34
#MEASURE 4/4
#BPMCHANGE 130
#SCROLL 1
7,
0008,
11221000,
30002220,
500000000000000008000000500000000000000008000000,
11,
200000200000200000200000500000000000000008000000,
70000800, //42
#BPMCHANGE 192
#GOGOSTART
1110,
20202200,
1111,
2240,
1210,
10102200,
2222,
1130, //50
#GOGOEND
1
#BPMCHANGE 200
1,
#BPMCHANGE 204
11
#BPMCHANGE 208
10, //52
#BPMCHANGE 213
#GOGOSTART
1211,
1211,
0022,
10111000,
1211,
1211,
2210,
2211,
2210, //61
#GOGOEND
#BPMCHANGE 90
30007008,
#MEASURE 2/4
#BPMCHANGE 180
2
#BPMCHANGE 123
#SCROLL 1.46
0, //63
#MEASURE 1/4
#BPMCHANGE 97
#SCROLL 1
1,
#MEASURE 2/4
#GOGOSTART
33,
#MEASURE 5/4
4
#GOGOEND
0000, //66
#END

COURSE:Easy
LEVEL:4
BALLOON:4,12,5,4
SCOREINIT:990,10270
SCOREDIFF:668
#START
3,
12,
2,
12,
2,
1100,
#MEASURE 2/4
2, //7
#MEASURE 4/4
#BPMCHANGE 192
#GOGOSTART
11,
1,
1, //10
#GOGOEND
#BPMCHANGE 96
300000000000500000000000000000000008000000000000,
#BPMCHANGE 160
2
#BPMCHANGE 96
0, //12
11,
1100,
11,
1100,
33,
4400, //18
#BPMCHANGE 192
#GOGOSTART
11,
2,
1, //21
#GOGOEND
#BPMCHANGE 96
300000000000500000000000000000000008000000000000,
#BPMCHANGE 160
2
#BPMCHANGE 192
0, //23
#GOGOSTART
11,
2,
22,
1,
11,
2,
22,
22,
2, //32
#GOGOEND
#BPMCHANGE 96
30007008,
#MEASURE 3/4
#BPMCHANGE 160
2
#BPMCHANGE 130
#SCROLL 1.23
00, //34
#MEASURE 4/4
#SCROLL 1
7,
0008,
2220,
3,
22,
21,
2220,
70000800, //42
#BPMCHANGE 192
#GOGOSTART
22,
22,
11,
1,
22,
11,
22,
1, //50
#GOGOEND
1
#BPMCHANGE 200
0,
#BPMCHANGE 204
1
#BPMCHANGE 208
1, //52
#BPMCHANGE 213
#GOGOSTART
11,
2,
22,
11,
11,
2,
22,
1,
2, //61
#GOGOEND
#BPMCHANGE 90
30007008,
#MEASURE 2/4
#BPMCHANGE 180
2
#BPMCHANGE 123
#SCROLL 1.46
0, //63
#BARLINEOFF
#MEASURE 1/4
#BPMCHANGE 97
#SCROLL 1
0,
#BARLINEON
#MEASURE 2/4
#GOGOSTART
33,
#MEASURE 5/4
4
#GOGOEND
0000, //66
#END
