//TJADB Project
TITLE:Comona
TITLEJA:Comona
SUBTITLE:--Tetsukazu Nakanishi/ACE COMBAT 04 SHATTERED SKIES
SUBTITLEJA:「ACE COMBAT 04」より
BPM:138
WAVE:Comona.ogg
OFFSET:-2.023
DEMOSTART:2.023 //Shinuchi:
5240/3620/1920/1250

COURSE:Oni
LEVEL:9
BALLOON:6,4,5,10
SCOREINIT:440,1350
SCOREDIFF:100
#START
#BARLINEOFF
#MEASURE 1/4
2221,
#BARLINEON
#MEASURE 4/4
0000200200001005,
000000000000000000000000000008000000100000000300,
0000200200001005,
000000000000008000000100000200200200100000000300,
0000200200001005,
000000000000000000000000000008000000100000000300,
0000200200001005,
000000000000008000000300000101010100100100000300, //9
#GOGOSTART
0010201100102011,
0010201100104003,
0010201100102005,
000000000000008000000500000000000000008000000300,
0010201100102011,
0010201100104003,
0010201100102005,
000000000000008000000500000000000000008000000100, //17
#GOGOEND
0010201010102011,
0010201010102011,
0010201010102011,
0010201202101111,
0010201010102011,
0010201010102011,
0010201010102011,
0110201202101111, //25
0010210110210101,
0010210110210201,
0110210110210101,
0010201202101111,
0010210110210101,
0010210110210201,
0110210110210101,
0110201202103003, //33
#GOGOSTART
0111112202211111,
0300300000002222,
0111112202211111,
000300000000300000000000101010100100200200200200,
0111112202211111,
0300301120121122,
0111112202211111,
0000300300003003,
0202,
0000200000002001,
0000011122112103, //44
#GOGOEND
0500,
000000000000000000000000000008000000300000000500,
000000000000000000000008000000100000500000000000,
000000000008000000100100700000000000000000800000,
0000200200001001,
0011122112221103,
0010200122101003,
000000100000100000000300000101010100100100000300, //52
#GOGOSTART
0010210110210211,
0110201110102203,
000000101010200000101010200000101010200000100100,
2112111270000080,
000221112221112211122221,
101010101050000000000000000000000000008000000300,
0011112211222112,
700000000000800000000500000000000000008000000300, //60
#GOGOEND
0010201010102011,
0010201010102011,
0010201010102011,
0010201202101111,
0010201010102011,
0010201010102011,
0010201010102011,
0110201202101111, //68
0010210110210101,
0010210110210201,
0110210110210101,
0010201202101111,
0010210110210111,
0010210110210211,
0110210110210111,
2011201120112003, //76
#GOGOSTART
0111112202211111,
000300000000600000000000000008000000200200200200,
0111112202211111,
000300000000300000000000101010100100200200200200,
0111112202211111,
0300301120121122,
0111112202211111,
000000000000300000000300000000100100101020101020, //84
111211121112111211121112,
1070000000008003,
0000011122112103,
0,
#GOGOEND
0, //89
#END

COURSE:Hard
LEVEL:7
BALLOON:4,14,14
SCOREINIT:520,2170
SCOREDIFF:130
#START
#BARLINEOFF
#MEASURE 1/4
1001,
#BARLINEON
#MEASURE 4/4
0000200200001005,
000000000000000000000000000008000000100000000300,
0000200200001005,
000000000000008000000300000000000000100000000300,
0000200200001005,
000000000000000000000000000008000000100000000300,
0000200200001005,
000000000000008000000300000000000000100000000300, //9
#GOGOSTART
0000200200001001,
0000200100003003,
0000200200001005,
000000000000008000000500000000000000008000000300,
0000200200001001,
0000200100003003,
0000200200001005,
000000000000008000000500000000000000008000000100, //17
#GOGOEND
0010200010102001,
0010200010102001,
0010200010102001,
0010200201101101,
0010200010102001,
0010200010102001,
0010200010102001,
0010200201101101,
0010200010110101,
0010200010110201,
0010200010110101,
0010200201101101,
0010200010110101,
0010200010110201,
0010200010110101,
0010200201103003, //33
#GOGOSTART
0101102202022011,
0300300000002022,
0101102202022011,
0300300000002022,
0101102202022011,
0300300000002022,
0101102202022011,
0000300300003003,
0202,
0000200000002001,
0000011010102203, //44
#GOGOEND
0500,
000000000000000000000000000008000000300000000500,
000000000000000000000000000008000000500000000000,
000000000008000000000000300000000000000000000000,
0000200200001001,
0000200000002003,
0000200200001003,
0010100300202003, //52
#GOGOSTART
0010200100102001,
0010200100004003,
0010200100202000,
1110111070000080,
9009,
8,
0010111022201000,
500000000000000000000000000000000000008000000300, //60
#GOGOEND
0010200010102001,
0010200010102001,
0010200010102001,
0010200201101101,
0010200010102001,
0010200010102001,
0010200010102001,
0010200201101101,
0010200010110101,
0010200010110201,
0010200010110101,
0010200201101101,
0010200010110101,
0010200010110201,
0010200010110000,
2022202220222003, //76
#GOGOSTART
0101102202022011,
0300300000002022,
0101102202022011,
0300300000002022,
0101102202022011,
0300300000002022,
0101102202022011,
0000300300003009,
0009,
8000000000000003,
0000011010102203,
0,
#GOGOEND
0, //89
#END

COURSE:Normal
LEVEL:5
BALLOON:4,10,10
SCOREINIT:710,4570
SCOREDIFF:195
#START
#BARLINEOFF
#MEASURE 1/4
0001,
#BARLINEON
#MEASURE 4/4
0000200200001005,
000000000000000000000000000008000000000000000300,
0000200200001005,
000000000000008000000500000000000000008000000300,
0000200200001005,
000000000000000000000000000008000000000000000300,
0000200200001005,
000000000000008000000500000000000000008000000300, //9
#GOGOSTART
0000200200001001,
0000200000002003,
0000200200001005,
000000000000008000000500000000000000008000000300,
0000200200001001,
0000200000002003,
0000200200001005,
000000000000008000000500000000000000008000000100, //17
#GOGOEND
0000200010002001,
0000200010002001,
0000200010002001,
0000000000000001,
0000200010002001,
0000200010002001,
0000200010002001,
0000000000000001,
0000200010001001,
0000200010001001,
0000200010001001,
0000000000000001,
0000200010001001,
0000200010001001,
0000200010001001,
0000000000003003, //33
#GOGOSTART
000500000000000000000000000000000000000000008000,
0300300000004000,
000500000000000000000000000000000000000000008000,
0300300000004000,
000500000000000000000000000000000000000000008000,
0300300000004000,
000500000000000000000000000000000000000000008000,
0000300300003003,
0202,
0000200000001001,
0000000000000003, //44
#GOGOEND
0500,
000000000000000000000000000008000000000000000500,
000000000000000000000000000008000000500000000000,
000000000008000000000000000000000000200000000100,
0202,
0000200000002001,
0000200000002003,
0000000300000003, //52
#GOGOSTART
0212,
1000200010002003,
0212,
11117008,
9009,
8,
01112220,
500000000000000000000000000000000000008000000300, //60
#GOGOEND
0000200010002001,
0000200010002001,
0000200010002001,
0000000000000001,
0000200010002001,
0000200010002001,
0000200010002001,
0000000000000001,
0000200010001001,
0000200010001001,
0000200010001001,
0000000000000001,
0000200010001001,
0000200010001001,
0211,
4000400040003003, //76
#GOGOSTART
000500000000000000000000000000000000000000008000,
0300300000004000,
000500000000000000000000000000000000000000008000,
0300300000004000,
000500000000000000000000000000000000000000008000,
0300300000004000,
000500000000000000000000000000000000000000008000,
0000300300003009,
0009,
8000000000000003,
0000000000000003,
0,
#GOGOEND
0, //89
#END

COURSE:Easy
LEVEL:3
BALLOON:6,6
SCOREINIT:580,6280
SCOREDIFF:175
#START
#BARLINEOFF
#MEASURE 1/4
0,
#BARLINEON
#MEASURE 4/4
0000200000002005,
000000000000000000000000000008000000000000000000,
0000200000002005,
000000000000008000000500000000000000008000000000,
0000200000002005,
000000000000000000000000000008000000000000000000,
0000200000002005,
000000000000008000000500000000000000008000000000, //9
#GOGOSTART
0202,
0202,
0000200000002005,
000000000000008000000500000000000000008000000000,
0202,
0202,
0000200000002005,
000000000000008000000500000000000000008000000000, //17
#GOGOEND
0111,
0111,
0111,
0202,
0111,
0111,
0111,
0202,
0121,
0121,
0121,
0202,
0121,
0121,
0121,
0000200000003003, //33
#GOGOSTART
000500000000000000000000000000008000000000000000,
0300300000000000,
000500000000000000000000000000008000000000000000,
0300300000000000,
000500000000000000000000000000008000000000000000,
0300300000000000,
000500000000000000000000000000008000000000000000,
0000300300003003,
0002,
0002,
0000000000000003, //44
#GOGOEND
0500,
000000000000000000000000000008000000000000000500,
000000000000000000000000000008000000000000000000,
12,
0202,
0202,
0202,
0111, //52
#GOGOSTART
0202,
0202,
0202,
1110,
9009,
8,
0111,
500000000000000000000000000000000000008000000000, //60
#GOGOEND
0111,
0111,
0111,
0202,
0111,
0111,
0111,
0202,
0121,
0121,
0121,
0202,
0121,
0121,
0121,
0000000000003003, //76
#GOGOSTART
000500000000000000000000000000008000000000000000,
0300300000000000,
000500000000000000000000000000008000000000000000,
0300300000000000,
000500000000000000000000000000008000000000000000,
0300300000000000,
000500000000000000000000000000008000000000000000,
0000300300003009,
0009,
8000000000000003,
0000000000001003,
0,
#GOGOEND
0, //89
#END
