//TJADB Project
TITLE:ARMAGEΔDON
TITLEJA:ARMAGEΔDON
SUBTITLE:--BlackY
SUBTITLEJA:BlackY
BPM:190
WAVE:ARMAGEDON.ogg
OFFSET:-1.467
DEMOSTART:85.374

COURSE:Oni
LEVEL:10
SCOREINIT:340
SCOREDIFF:85
#START
30210201,
0010001010002220,
10210201,
0010001010221120,
3010221020102022,
1010201011102010,
1111111111111111,
11222222,
4,
00003300,
1000201011201000,
1120102011201020,
1000201011201000,
1120102011202020,
1000201011201000,
1120102011201020,
1010201011201000,
1120112030300000,
1002201020210010,
1002201221210010,
1002201220122120,
1021212010100000,
1012201020210010,
1012201221212020,
200010002000100020001000200200100200200100200200,
100100000111100100400000,//26
#GOGOSTART
1020120110120022,
1021021010221122,
1020120110120022,
1021021010221122,
1112021112021112,
0221122121212120,
1121121121120112,
2112211221122112,
0020300110120022,
1021021010221122,
1020120110120022,
1003004000201022,
2211221112022112,
2121212110201022,
2211221111221122,
2010120122122122,//42
#GOGOEND
1000222210040030,
1121121120040030,
1211211210030040,
100000200200200200100100202020200200100100100100,
000000000000100100101010200100100200100100200000,
000000100000100100000100100100000100202020100000,
0010121111211040,
,
,
200220202020,
200220202020,
200220202020,
200220222020,
200220222022,
200020002020222020002000,
202222202222,
201020201010221010400000,
40030020,
4001203010002220,
30040030,
0030030040030030,
4010101220121020,
3020121040121012,
100010001000100010001000100100100100100100100100,
200000200200200000200200200000101010200000000000,//67
#GOGOSTART
1000201202201020,
1101201210201122,
1000201202201020,
1101201221021020,
1000201202201020,
100100000100100000100200000100200000102020100100,
2202202022111122,
202020202020202020200000200200100100100100200200,
1000401202201020,
3003001210201122,
0000401202201020,
1101201221021020,
1021021021021112,
0102101010210122,
100100000100200000100000102020100100000100100100,//82
#GOGOEND
202020200200200000200200000200200000300000000000,//83
#GOGOSTART
2211212011221210,
2112112112120011,
2211221111221122,
2112211221021011,
2211211211211212,
100200100200102010201020100100200200100100200000,
2211211211211211,
100200200100100200200100202020202020202020200000,//91
#GOGOEND
3000222210040030,
1121121120040030,
1211211210030040,
100000200200200200100100202020200200100100100100,
1010101120121120,
0010111120040030,
101010100100100100100100100100000100100000400000,
#END

COURSE:Hard
LEVEL:8
BALLOON:32,4
SCOREINIT:410
SCOREDIFF:110
#START
30110201,
01011020,
10110201,
01011122,
30110201,
01011020,
30110201,
11222222,
4,
00003300,
10202200,
2220002022200020,
10202200,
2220002022202020,
10202200,
2220002022200020,
10202200,
2220222030300000,
10212201,
10212201,
10212121,
12121100,
10212201,
10212222,
500000000000000000000000000000000000000000000008,
0004,//26
#GOGOSTART
10101210,
1000102010201011,
10101210,
1000102010201011,
11221122,
12121212,
1110202011102020,
500000000000000000000000000000000000000008000000,
00301210,
1000102010201011,
10101210,
3003004000201011,
11221122,
12121212,
1110202011102020,
500000000000000000000000000000000000000008000000,//42
#GOGOEND
3000000030040030,
0000000030040030,
0000000030030040,
000000500000000000000000000000000000000000000008,
0000300030040030,
0000000030040030,
0000000030030040,
,
,
22,
200222,
22,
200222,
200222,
200222,
200220200220,
200220200200,
20010020,
2212,
10020010,
02,
1000002220020020,
0010020020020022,
2,
1011101110222000,//67
#GOGOSTART
1000102010201110,
1010202010102220,
1000102010201110,
11221010,
1000102010201110,
1010202010102220,
5,
000000000000000000000008000000000000000000000000,
0000300010201110,
3003004010102220,
0000300010201110,
3003004030030040,
9,
,
0900,//82
#GOGOEND
8,//83
#GOGOSTART
1110202011102020,
12121212,
1110202011102020,
1020102030030030,
1110202011102020,
500000000000000008000000100000200000100000200000,
1110111022202220,
500000000000000008000000700000000000000000800000,//91
#GOGOEND
3000000030040030,
0000000030040030,
0000000030030040,
000000500000000000000000000000000000000008000000,
3000000030040030,
0000000030040030,
0000000040040030,
,
#END

COURSE:Normal
LEVEL:7
BALLOON:6,24,12
#START
3,
,
3,
,
31,
31,
5,
000000000000000000000000000000000008000000000000,
3,
00003300,
10101100,
11001100,
10101100,
11002020,
10101100,
11001100,
10101100,
10103300,
10201100,
10201100,
1212,
500000000000000000000000000000000008000000000000,
10201100,
1212,
500000000000000000000000000000000000000000000008,
0004,//26
#GOGOSTART
1110,
10101011,
1110,
10101011,
2222,
20201110,
1122,
500000000000000000000000000000000000000008000000,
0310,
10101011,
1110,
7008,
2222,
20201110,
1122,
500000000000000000000000000000000008000000000000,//42
#GOGOEND
3000000030030030,
0000000030030030,
0000000030030040,
000000500000000000000000000000000000000000000008,
0000300030030030,
0000000030030030,
0000000030030040,
,
,
2,
22,
2,
22,
22,
22,
2222,
2222,
10010020,
2222,
10020010,
02,
12,
000000500000000000000000000000000000000000000008,
,
2222,//67
#GOGOSTART
10102011,
10101120,
10102011,
1120,
10102011,
1122,
5,
000000000000000000000008000000000000000000000000,
00302011,
10101120,
00302011,
1120,
9,
,
0900,//82
#GOGOEND
8,//83
#GOGOSTART
10102011,
10102011,
20202022,
1120,
10102011,
10102220,
7,
08,//91
#GOGOEND
3000000030030030,
0000000030030030,
0000000030030040,
000000500000000000000000000000000008000000000000,
3000000030030030,
0000000030030030,
0000000040040040,
,
#END

COURSE:Easy
LEVEL:5
BALLOON:4,19,11
#START
3,
,
3,
,
3,
3,
5,
000000000000000000000000000000000000000000000008,
,
,
1110,
11,
1110,
12,
1110,
11,
1110,
13,
1120,
1120,
1122,
500000000000000000000000000008000000000000000000,
1120,
1122,
500000000000000000000000000000000000000000000008,
,//26
#GOGOSTART
11,
10001011,
11,
10001011,
1111,
1110,
2222,
500000000000000000000000000000000000000008000000,
0310,
10001011,
11,
7008,
1111,
1110,
2222,
500000000000000000000000000008000000000000000000,//42
#GOGOEND
3000000030030030,
0000000030030030,
0000000030030030,
000000500000000000000000000000000000000008000000,
0000300030030030,
0000000030030030,
0000000040040040,
,
,
2,
2,
2,
2,
22,
22,
22,
2222,
10010010,
1111,
10010010,
02,
11,
000000500000000000000000000000000000000000000008,
,
2222,//67
#GOGOSTART
10101011,
1110,
10101011,
1120,
10101011,
1122,
5,
000000000000000000000008000000000000000000000000,
00301011,
1110,
00301011,
1120,
9,
,
0900,//82
#GOGOEND
8,//83
#GOGOSTART
10101011,
1110,
20202022,
2220,
10101011,
1111,
7,
08,//91
#GOGOEND
3000000030030030,
0000000030030030,
0000000030030030,
000000500000000000000000000008000000000000000000,
3000000030030030,
0000000030030030,
0000000040040040,
,
#END
