//TJADB Project
TITLE:Marine Mirage
TITLEJA:Marine Mirage
SUBTITLE:--ANCHOR (ZiNG) feat. Aya Uchida/iMarine Project
SUBTITLEJA:ANCHOR(ZiNG) アイマリン(CV:内田彩)、アイウリン(CV:三森すずこ)、アイワリン(CV:竹達彩奈) 「アイマリンプロジェクト」より
BPM:170
WAVE:Marine Mirage.ogg
OFFSET:-1.478
DEMOSTART:45.948

COURSE:Oni
LEVEL:6
BALLOON:12
SCOREINIT:480
SCOREDIFF:110
#START
10202022,
02022020,
10202022,
02022020,
10202022,
02022020,
10202022,
02022020,
1000200020002022,
2010200020020020,
1000200020002022,
2010200020020020,
1000200020002022,
2010201020020020,
1000200020002022,
2010201020111110,
1011102011101020,
1011102011101020,
1011102011101020,
1011102010221020,
1011102011101020,
1011102011101020,
11212121,
1022201020111110,
1010201110102010,
0010201110102010,
1010201110102010,
0010201110202020,
11012020,
11012020,
70000811,
1022,//32
#GOGOSTART
1001101010112010,
1011101010112010,
1000201110102010,
1000201110202010,
1000202011102010,
1000202011102020,
1110200011102000,
500000000000000008000000200000000000200000000000,
1001101010112010,
1011101010112010,
1000201110102020,
1000201110202010,
1000001020002011,
11012020,
500000000000000000000000000008000000000000100100,
1000001010010010,
5,
000000000000000000000000000000000000000008000000,
30130130,
13013040,
3011103011103011,
1030111030004000,
600000000000000000000000000000000008000000000000,
600000000000000000000000000000000000000008000000,//56
#GOGOEND
,
0022,//58
#GOGOSTART
3,
3,
3,
30010110,
3,
30001111,
3020302030221022,
500000000000000008000000100000100000100000100000,
600000000000000008000000300000000000300000000000,
1001101010112010,
1011101010112010,
1000201110102010,
1000201110202010,
1000202011102010,
1000202011102020,
1110200011102000,
500000000000000008000000200000000000200000000000,
1001101010112010,
1011101010112010,
1000201110102020,
1000201110202010,
1000001020002011,
11012020,
500000000000000000000000000008000000200200100100,//82
#GOGOEND
1,
20202022,
02022020,
20202022,
02022224,
,
,
#END

COURSE:Hard
LEVEL:3
BALLOON:12,20
SCOREINIT:640
SCOREDIFF:190
#START
1,
,
1,
,
1,
,
1,
,
2,
,
2,
,
2,
,
2,
,
10101011,
1121,
10101011,
1121,
10101011,
1121,
10202011,
1000200020111000,
11201121,
01211020,
11201121,
01211020,
10012020,
10012020,
7,
8,//32
#GOGOSTART
10101021,
10101021,
10201021,
10201021,
10201120,
10201120,
11201120,
1,
10101021,
10101021,
10201120,
10201120,
10012020,
10012020,
500000000000000000000000000008000000000000000000,
,
9,
09,
8,
,
30030030,
03003000,
6,
000000000000000000000000000000000000000008000000,//56
#GOGOEND
,
,//58
#GOGOSTART
3,
3,
3,
3,
3,
3,
3333,
600000000000000000000000000008000000000000000000,
600000000000000000000008000000000000000000000000,
10101021,
10101021,
10201021,
10201021,
10201120,
10201120,
11201120,
1,
10101021,
10101021,
10201120,
10201120,
10012020,
10012020,
500000000000000000000000000008000000000000000000,//82
#GOGOEND
3,
2,
,
2,
00000004,
,
,
#END

COURSE:Normal
LEVEL:2
BALLOON:8,17
#START
1,
,
1,
,
1,
,
1,
,
2,
,
2,
,
2,
,
2,
,
1110,
12,
1110,
1,
1110,
12,
1110,
1,
22,
2,
22,
2,
1022,
1022,
7,
8,//32
#GOGOSTART
1110,
1110,
12,
12,
1120,
1120,
1122,
1,
1110,
1110,
11,
1111,
1022,
1022,
500000000000000000000000000008000000000000000000,
,
9,
09,
8,
,
30030030,
03003000,
6,
000000000000000000000000000000000000000008000000,//56
#GOGOEND
,
,//58
#GOGOSTART
3,
3,
3,
3,
3,
3,
3333,
600000000000000000000000000008000000000000000000,
600000000000000000000008000000000000000000000000,
1110,
1110,
12,
12,
1120,
1120,
1122,
1,
1110,
1110,
11,
1111,
1022,
1022,
500000000000000000000000000008000000000000000000,//82
#GOGOEND
3,
2,
,
2,
00000004,
,
,
#END

COURSE:Easy
LEVEL:1
BALLOON:6,15
#START
1,
,
1,
,
1,
,
1,
,
2,
,
2,
,
2,
,
2,
,
1,
1,
11,
1,
1,
1,
11,
1,
2,
,
2,
,
1,
1,
7,
8,//32
#GOGOSTART
11,
1,
11,
1,
11,
1,
22,
2,
11,
1,
11,
1,
11,
11,
500000000000000000000000000008000000000000000000,
,
9,
09,
8,
,
3,
,
6,
000000000000000000000000000000000000000008000000,//56
#GOGOEND
,
,//58
#GOGOSTART
3,
3,
3,
3,
3,
3,
33,
600000000000000000000000000008000000000000000000,
600000000000000000000008000000000000000000000000,
11,
11,
1,
2,
11,
1,
11,
2,
11,
11,
1,
2,
1,
22,
500000000000000000000000000008000000000000000000,//82
#GOGOEND
3,
2,
,
2,
00000004,
,
,
#END
