//TJADB Project
TITLE:Tenka Touitsu Roku
TITLEJA:天下統一録
SUBTITLE:--Daisuke Kurosawa × Masahiro “Godspeed” Aoki
SUBTITLEJA:黒沢ダイスケ × Masahiro "Godspeed" Aoki
BPM:210
WAVE:Tenka Touitsu Roku.ogg
OFFSET:-1.741
DEMOSTART:58.395

COURSE:Oni
LEVEL:10
BALLOON:17,2,2,12,7,5,15,5
SCOREINIT:360
SCOREDIFF:75
#START
#MEASURE 5/4
1011011010,
10001010001010001011,
1011011010,
1011111111,
3011011010,
30001010001010001011,
10001010001010111011,
7008,
#MEASURE 4/4
3000111120101020,
01222121,
0011201110102010,
0011201110102030,
0000111120101020,
01222121,
0011201110102010,
0011201022112030,
0000111120000020,
11211120,
21112211,
21221122,
21211121,
11221121,
22112221,
2020101022112111,
#MEASURE 5/4
10002010001120101000,
40001020001010112000,
10002010001120101000,
40001020001010112222,
#MEASURE 4/4
21112211,
21221122,
21211121,
11221121,
22112221,
2020101011222022,
#MEASURE 5/4
10102010201120102010,
20102010201020112010,
40102010201120102010,
400000100000200200200200100100100100200020002000100010001000,
#MEASURE 4/4
10101112,
01121121,
1012102210101020,
000000100000500000000008000000100000100000200000,
11121112,
01211111,
2211121111222030,
00300223,//46
#GOGOSTART
0011201011112010,
0011201110112010,
000000100100200000200000100100200200200000700008,
0011222110111010,
0011201110211120,
3011104000112030,
0012202022202020,
0022201110101030,
0011201011112010,
0011201110112010,
000000100100200000200000100100200200200000700008,
0011222110111010,
0011201120112011,
2111211120112010,
0011211121112111,
2211211212211222,
500000000000000000000000000000000000000008000000,
7008,//64
#GOGOEND
30110110,
10101300,
3000101110112121,
1121211120300000,
3011101010102010,
1010101022112110,
2000100010001111,
1020101021112000,
00000003,//73
#GOGOSTART
0011201020202010,
0011201110102010,
0011201020202010,
2211221120222010,
0011201020202010,
0011201110102010,
0011201020201020,
2211221121212010,
0011201020202010,
1011221010102010,
000000100100200000100000200020001000100020001000,
100010002000100010001000200000200200200000100000,
0011201020202010,
100000100000200000500008000000200200100100100000,
21212121,
2212117000008000,
1111221111112211,
1111221111112030,
0011221112112211,
1211221112112222,
700800111211,
200020001000200010001000400000000300000000400000,
30111012,
2022202022221111,
2111211121211121,
1121112121112121,
1121112121211121,
1121112121112000,
1111221111212210,
2211212122112121,
500000000000000000000000000008000000100000700000,
0008,
600000000000000080000000200200100100200100100100,
2112112170008000,//107
#GOGOEND
41141141,
14213300,
3,
4,
6,
000000000000000000000000000000000080000000100100,
1,
#END

COURSE:Hard
LEVEL:8
BALLOON:9,9,4,10
SCOREINIT:370
SCOREDIFF:90
#START
#MEASURE 5/4
1001001010,
1001001010,
1001001010,
1001001010,
3001001010,
3001001010,
3001001010,
70008,
#MEASURE 4/4
3000111020001020,
01201021,
0011100010102010,
01201113,
0000111020001020,
01201021,
0011100010002010,
01212123,
00000002,
11211120,
10201110,
10102011,
1112,
11101010,
20111010,
10201110,
#MEASURE 5/4
10002010001110001000,
40001020000010111000,
10002010001110001000,
40001020000010111000,
#MEASURE 4/4
10201110,
10102011,
1112,
11101010,
20111010,
10201110,
#MEASURE 5/4
1021212120,
2021212120,
4021212120,
4021212120,
#MEASURE 4/4
10101012,
01101020,
10101012,
01101211,
10101112,
01111110,
1110101010002030,
00300223,//46
#GOGOSTART
0010200011101020,
01210101,
0010200011101030,
00201121,
01201120,
30140123,
0010201022202050,
000000000000000000000008000000100000100000300000,
0010200011101020,
01210101,
0010200011101030,
00201121,
01202120,
21212121,
01202121,
0020202011101000,
500000000000000000000000000000000000000008000000,
7008,//64
#GOGOEND
30010010,
10100300,
30101011,
01101300,
3112,
10102110,
3111,
1000100011101000,
00000003,//73
#GOGOSTART
01202221,
01201121,
01201110,
2010201020222010,
01202221,
01201121,
01201110,
2010201022202010,
01202221,
01201121,
01201110,
2010201020222010,
01202221,
01201110,
11201121,
2220207000008000,
1000100011102000,
1000100011102030,
0010200011102000,
1000100011102000,
10101210,
3010000040030040,
30012011,
2022202020202000,
40404404,
04044044,
04044404,
04044040,
2010201022202000,
2010201022202000,
500000000000000000000000000008000000000000700000,
0008,
6,
000000000000000000000000000008000000000000000000,//107
#GOGOEND
40140140,
14013300,
3,
4,
6,
000000000000000000000000000000000080000000100100,
1,
#END

COURSE:Normal
LEVEL:7
BALLOON:6,6,7
#START
#MEASURE 5/4
1001001000,
1001001000,
1001001000,
1001001000,
3001001000,
3001001000,
3001001000,
70008,
#MEASURE 4/4
3110,
20202011,
0110,
20202003,
0110,
20202011,
0110,
20202003,
,
,
5,
,
000000000000000008000000000000000000500000000000,
,
,
000000000000000000000000000008000000000000000000,
#MEASURE 5/4
1001001010,
1001001010,
2002002020,
2002002020,
#MEASURE 4/4
5,
,
000000000000000008000000000000000000500000000000,
,
,
000000000000000000000000000008000000000000000000,
#MEASURE 5/4
11111,
11111,
42222,
42222,
#MEASURE 4/4
10101002,
0110,
10101002,
0110,
10101002,
0111,
10101003,
00300003,//46
#GOGOSTART
00101012,
01010101,
01101003,
00000001,
0111,
30040003,
00202025,
000000000000000000000008000000000000000000300000,
00101012,
01010101,
01101003,
00000001,
00102120,
21202121,
00202121,
01212120,
500000000000000000000000000000000000000008000000,
7008,//64
#GOGOEND
3,
00000300,
30000011,
01100300,
31,
10001110,
3111,
10101110,
00000003,//73
#GOGOSTART
00102011,
01102001,
0120,
21212121,
00102011,
01102001,
0120,
21212121,
00102011,
01102001,
0120,
10102121,
00102001,
01102000,
1111,
500000000000000000000000000008000000000000000000,
10101012,
10101013,
00101210,
10101210,
10101110,
34,
3120,
12,
40404404,
04044044,
04044404,
04044040,
21202120,
21202120,
500000000000000000000000000008000000000000700000,
0008,
6,
000000000000000000000000000008000000000000000000,//107
#GOGOEND
30030030,
03003300,
3,
4,
6,
000000000000000000000000000000000000000000000008,
,
#END

COURSE:Easy
LEVEL:5
BALLOON:4,4,5
#START
#MEASURE 5/4
10010,
10010,
10010,
10010,
30010,
30010,
30010,
70008,
#MEASURE 4/4
30001002,
00000001,
00001002,
00000003,
00001002,
00000001,
00001002,
00000003,
,
,
5,
,
000000000000000008000000000000000000500000000000,
,
,
000000000000000000000000000008000000000000000000,
#MEASURE 5/4
10010,
10010,
20020,
20020,
#MEASURE 4/4
5,
,
000000000000000008000000000000000000500000000000,
,
,
000000000000000000000000000008000000000000000000,
#MEASURE 5/4
10101,
10101,
40202,
40202,
#MEASURE 4/4
10001002,
,
10001002,
,
10001002,
,
10101003,
00300003,//46
#GOGOSTART
00100001,
00010001,
00100003,
00000002,
0200,
30040001,
00101005,
000000000000000000000008000000000000000000300000,
00100001,
00010001,
00100003,
00000001,
0100,
20000002,
00202002,
0220,
500000000000000000000000000000000000000008000000,
7008,//64
#GOGOEND
3,
00000300,
3,
00000300,
3,
,
31,
1011,
00000003,//73
#GOGOSTART
0120,
00002001,
0120,
20202001,
0120,
00002001,
0120,
20202001,
0120,
00002001,
0120,
20202001,
0120,
02,
1110,
500000000000000000000000000008000000000000000000,
1110,
10101003,
0110,
1110,
12,
34,
31,
22,
40404004,
04040004,
04040004,
04040000,
11,
11,
500000000000000000000000000008000000000000700000,
0008,
6,
000000000000000000000000000008000000000000000000,//107
#GOGOEND
30030030,
03003300,
3,
4,
6,
000000000000000000000000000000000000000000000008,
,
#END
